Драйв / Drive (Николас Виндинг Рефн / Nicolas Winding Refn) [2011, США, триллер, драма, криминал, DVDRip] DUB + Original (eng)

Reply to topic
 
Author
Message

Faust ®

Gender: Unknown

Longevity: 9 years 2 months

Posts: 14058

Reputation: 0 [+] [-]

Faust · Post 28-Nov-2011 00:36

[Quote] 

Драйв / Drive
Год выпуска: 2011
Страна: США
Студии: Bold Films, Marc Platt Productions, Odd Lot Entertainment, Seed Productions
Жанр: триллер, драма, криминал
Продолжительность: 01:36:41
Перевод: Профессиональный (дублированный)
Субтитры: нет
Оригинальная аудиодорожка: Английский
Режиссер: Николас Виндинг Рефн / Nicolas Winding Refn
В ролях: Райан Гослинг, Кэри Маллиган, Брайан Крэнстон, Альберт Брукс, Оскар Айзек, Кристина Хендрикс, Рон Перлман, Каден Леос, Джефф Вульф, Джеймс Бибери...
Описание: Великолепный гонщик — при свете дня он выполняет каскадерские трюки на съёмочных площадках Голливуда, а по ночам ведет рискованную игру. Но один опасный контракт — и за его жизнь назначена награда. Теперь, чтобы остаться в живых и спасти свою очаровательную соседку, он должен делать то, что умеет лучше всего — виртуозно уходить от погони...- -Исходник: DVD9 R5
Тип релиза: DVDRip
Контейнер: AVI
Видео: 720x304 (2.35:1), 25 fps, XviD MPEG-4 Visual ~ 2366 kbps avg, 0.432 bit/pixel
Аудио 1: 48 kHz, AC3, 6 ch, 448.00 kbps, Русский
Аудио 2: 48 kHz, AC3, 6 ch, 448.00 kbps, Английский

MediaInfo

Общее
Полное имя : Drayv.2011.D.DVDRip.avi
Формат : AVI
Формат/Информация : Audio Video Interleave
Профиль формата : OpenDML
Размер файла : 2,21 Гбайт
Продолжительность : 1 ч. 36 м.
Общий поток : 3280 Кбит/сек
Программа кодирования : VirtualDubMod 1.5.10.3 (build 2550/release)
Библиотека кодирования : VirtualDubMod build 2550/release
Видео
Идентификатор : 0
Формат : MPEG-4 Visual
Профиль формата : Advanced Simple@L5
Параметр BVOP формата : 1
Параметр QPel формата : Нет
Параметр GMC формата : Без точки перехода
Параметр матрицы формата : Выборочная
Идентификатор кодека : XVID
Идентификатор кодека/Подсказка : XviD
Продолжительность : 1 ч. 36 м.
Битрейт : 2366 Кбит/сек
Ширина : 720 пикселей
Высота : 304 пикселя
Соотношение сторон : 2,35:1
Частота кадров : 25,000 кадров/сек
Цветовое пространство : YUV
Субдискретизация насыщенности : 4:2:0
Битовая глубина : 8 бит
Тип развёртки : Прогрессивная
Метод сжатия : С потерями
Бит/(Пиксели*Кадры) : 0.432
Размер потока : 1,60 Гбайт (72%)
Библиотека кодирования : XviD 1.2.1 (UTC 2008-12-04)
Аудио #1
Идентификатор : 1
Формат : AC-3
Формат/Информация : Audio Coding 3
Расширение режима : CM (complete main)
Идентификатор кодека : 2000
Продолжительность : 1 ч. 36 м.
Вид битрейта : Постоянный
Битрейт : 448 Кбит/сек
Каналы : 6 каналов
Расположение каналов : Front: L C R, Side: L R, LFE
Частота : 48,0 КГц
Битовая глубина : 16 бит
Метод сжатия : С потерями
Размер потока : 310 Мбайт (14%)
Выравнивание : Разделение по промежуткам
Продолжительность промежутка : 40 мс. (1,00 видеокадр)
Время предзагрузки промежутка : 500 мс.
Аудио #2
Идентификатор : 2
Формат : AC-3
Формат/Информация : Audio Coding 3
Расширение режима : CM (complete main)
Идентификатор кодека : 2000
Продолжительность : 1 ч. 36 м.
Вид битрейта : Постоянный
Битрейт : 448 Кбит/сек
Каналы : 6 каналов
Расположение каналов : Front: L C R, Side: L R, LFE
Частота : 48,0 КГц
Битовая глубина : 16 бит
Метод сжатия : С потерями
Размер потока : 310 Мбайт (14%)
Выравнивание : Разделение по промежуткам
Продолжительность промежутка : 40 мс. (1,00 видеокадр)
Время предзагрузки промежутка : 500 мс.

Скриншот с названием

Скриншоты

[Profile]  [PM] 
Display posts:    
Reply to topic

Current time is: 27-Nov 02:47

All times are UTC + 2



You cannot post new topics in this forum
You cannot reply to topics in this forum
You cannot edit your posts in this forum
You cannot delete your posts in this forum
You cannot vote in polls in this forum
You cannot attach files in this forum
You cannot download files in this forum