Смертельные игры / Arena (Джона Луп / Jonah Loop) [2011, США, боевик, триллер, BDRip] VO + DVO + Eng

Reply to topic
 
Author
Message

Harald ®

Gender: Unknown

Longevity: 8 years 11 months

Posts: 11

Reputation: 10 [+] [-]

Harald · Post 09-Jan-2012 22:00

[Quote] 

Смертельные игры / Arena
Страна: США
Жанр: боевик, триллер
Год выпуска: 2011
Продолжительность: 01:34:13
Перевод: Oдноголосый закадровый
Cубтитры: нет
Режиссер: Джона Луп / Jonah Loop
В ролях: Келлан Латс, Сэмюэл Л. Джексон, Джонни Месснер, Катя Винтер, Дэниэл Дэ Ким, Джеймс Римар, Нина Добрев, Лорен Шиохама, Ирен Чои, Кофи Йадом, Дерек Мирс, Дин Дж. Уэст, Кент Джуд Бернард, Грант Кейс, Хезер Харрисон, Марселль Баэр, Фил Калотта, Майкл Лью, Соломон Луп, Шанна Форресталль, Сэм Медина, Ванесса Бренч, Лаура Вейссбеккер, Майра Лил, Моника Акоста, Брэндон Эллисон, Джош Тессьер, Эми Ле, Алекс Фроман, Мишель Эндрю
Описание: В центре сюжета находится молодой человек, который после похищения попадает в жестокий мир современных гладиаторских боев. На арене люди забивают друг друга до смерти для развлечения онлайн зрителей.
СЭМПЛ
Качество видео:BDRip (Arena 2011 1080p Blu-ray Remux AVC DTS-HD MA 5.1 - KRaLiMaRKo)
Формат видео: AVI
Видео:720x304 (2.37:1), 23.976 fps, XviD build 63 ~1745 kbps avg, 0.33 bit/pixel
Аудио:48 kHz, AC3 Dolby Digital, 3/2 (L,C,R,l,r) + LFE ch, ~448 kbps VO
*************************************************************
Отдельно
Аудио:48 kHz, AC3 Dolby Digital, 3/2 (L,C,R,l,r) + LFE ch, ~448 kbps ENG
Аудио:48 kHz, AC3 Dolby Digital, 2/0 (L,R) ch, ~192 kbps DVO

MediaInfo

General
Complete name : E:\Downloads\Arena.chopper887\Arena.chopper887.avi
Format : AVI
Format/Info : Audio Video Interleave
File size : 1.45 GiB
Duration : 1h 34mn
Overall bit rate : 2 202 Kbps
Movie name : Arena.chopper887
Director : chopper887
Genre : Action
Writing application : VirtualDubMod 1.5.10.3 | www.virtualdub-fr.org || (build 2550/release)
Original source form/Name : Movie
Video
ID : 0
Format : MPEG-4 Visual
Format profile : Advanced Simple@L5
Format settings, BVOP : 2
Format settings, QPel : No
Format settings, GMC : No warppoints
Format settings, Matrix : Custom
Codec ID : XVID
Codec ID/Hint : XviD
Duration : 1h 34mn
Bit rate : 1 746 Kbps
Width : 720 pixels
Height : 304 pixels
Display aspect ratio : 2.35:1
Frame rate : 23.976 fps
Color space : YUV
Chroma subsampling : 4:2:0
Bit depth : 8 bits
Scan type : Progressive
Compression mode : Lossy
Bits/(Pixel*Frame) : 0.333
Stream size : 1.15 GiB (79%)
Writing library : XviD 63
Audio
ID : 1
Format : AC-3
Format/Info : Audio Coding 3
Mode extension : CM (complete main)
Codec ID : 2000
Duration : 1h 34mn
Bit rate mode : Constant
Bit rate : 448 Kbps
Channel(s) : 6 channels
Channel positions : Front: L C R, Side: L R, LFE
Sampling rate : 48.0 KHz
Bit depth : 16 bits
Compression mode : Lossy
Delay relative to video : 24ms
Stream size : 301 MiB (20%)
Alignment : Split accross interleaves
Interleave, duration : 42 ms (1.00 video frame)
Interleave, preload duration : 500 ms

Скриншоты

[Profile]  [PM] 
Display posts:    
Reply to topic

Current time is: 03-Dec 09:44

All times are UTC + 2



You cannot post new topics in this forum
You cannot reply to topics in this forum
You cannot edit your posts in this forum
You cannot delete your posts in this forum
You cannot vote in polls in this forum
You cannot attach files in this forum
You cannot download files in this forum