Опасный метод / A Dangerous Method (Дэвид Кроненберг / David Cronenberg) [2011, Германия, Канада, Великобритания, Швейцария, триллер, драма, биография, HDRip] Dub + Original + Sub (rus)

Reply to topic
 
Author
Message

Oton ®

Gender: Unknown

Longevity: 9 years 2 months

Posts: 70

Reputation: 5 [+] [-]

Oton · Post 08-Mar-2012 18:41

[Quote] 

Опасный метод / A Dangerous Method
Страна: Германия, Канада, Великобритания, Швейцария
Жанр: триллер, драма, биография
Год выпуска: 2011
Продолжительность: 01:39:14
Перевод: Профессиональный (дублированный)
Cубтитры: русские
Режиссер: Дэвид Кроненберг / David Cronenberg
Оригинальная дорожка: есть ( английская )
В ролях: Вигго Мортенсен, Кира Найтли, Майкл Фассбендер, Венсан Кассель, Сара Гэйдон, Андре Хеннике, Арндт Шверинг-Сонри, Миньон Реме, Мареике Карьер
Описание: Сюжет закручен вокруг персон основателей психоанализа Карла Густава Юнга и Зигмунда Фрейда и их сложных взаимоотношений с умной и красивой пациенткой Сабиной Шпильрейн.
Исходник: BDRip 720p
Размер: 1/3 DVD
Качество видео: HDRip
Формат видео: AVI
Видео: 720x384 (1.88:1), 24 fps, XviD MPEG-4 ~1894 kbps avg, 0.28 bit/pixel
Аудио: 48 kHz, AC3 Dolby Digital, 2/0 (L,R) ch, ~192.00 kbps avg
Аудио#2: 48 kHz, AC3 Dolby Digital, 2/0 (L,R) ch, ~192.00 kbps avg

MediaInfo

Общее
Полное имя : C:\Documents and Settings\Администратор\Рабочий стол\A Dangerous Method_R.G.torrentsland.com.ua.avi
Формат : AVI
Формат/Информация : Audio Video Interleave
Размер файла : 1,45 Гбайт
Продолжительность : 1 ч. 39 м.
Общий поток : 2096 Кбит/сек
Программа кодирования : VirtualDubModRus 1.5.10.2 (build 2542/release)
Библиотека кодирования : VirtualDubMod build 2542/release
Видео
Идентификатор : 0
Формат : MPEG-4 Visual
Профиль формата : Advanced Simple@L5
Параметр BVOP формата : 2
Параметр QPel формата : Нет
Параметр GMC формата : Без точки перехода
Параметр матрицы формата : Выборочная
Режим смешивания : Сжатый битовый поток
Идентификатор кодека : XVID
Идентификатор кодека/Подсказка : XviD
Продолжительность : 1 ч. 39 м.
Битрейт : 1895 Кбит/сек
Ширина : 720 пикселей
Высота : 384 пикселя
Соотношение сторон : 1,875
Частота кадров : 24,000 кадра/сек
Цветовое пространство : YUV
Субдискретизация насыщенности : 4:2:0
Битовая глубина : 8 бит
Тип развёртки : Прогрессивная
Метод сжатия : С потерями
Бит/(Пиксели*Кадры) : 0.286
Размер потока : 1,31 Гбайт (90%)
Библиотека кодирования : XviD 64
Аудио
Идентификатор : 1
Формат : AC-3
Формат/Информация : Audio Coding 3
Расширение режима : CM (complete main)
Идентификатор кодека : 2000
Продолжительность : 1 ч. 39 м.
Вид битрейта : Постоянный
Битрейт : 192 Кбит/сек
Каналы : 2 канала
Расположение каналов : Front: L R
Частота : 48,0 КГц
Битовая глубина : 16 бит
Метод сжатия : С потерями
Размер потока : 136 Мбайт (9%)
Выравнивание : Разделение по промежуткам
Продолжительность промежутка : 42 мс. (1,00 видеокадр)
Время предзагрузки промежутка : 500 мс.

Скриншоты

[Profile]  [PM] 
Display posts:    
Reply to topic

Current time is: 28-Nov 21:24

All times are UTC + 2



You cannot post new topics in this forum
You cannot reply to topics in this forum
You cannot edit your posts in this forum
You cannot delete your posts in this forum
You cannot vote in polls in this forum
You cannot attach files in this forum
You cannot download files in this forum