Мушкетеры / The Three Musketeers (Пол У. С. Андерсон / Paul W.S. Anderson) [2011, США, Германия, Франция, Великобритания, боевик, приключения, HDRip] Dub |Лицензия|

Reply to topic
 
Author
Message

Oton ®

Gender: Unknown

Longevity: 9 years 2 months

Posts: 70

Reputation: 5 [+] [-]

Oton · Post 08-Mar-2012 18:45

[Quote] 

Мушкетеры / The Three Musketeers
-Страна: США, Германия, Франция, Великобритания
Жанр: боевик, приключения
Год выпуска: 2011
Продолжительность: 01:50:31
Перевод: Профессиональный (дублированный) |Лицензия|
Cубтитры: нет-Режиссер: Пол У. С. Андерсон / Paul W.S. Anderson-В ролях: Милла Йовович, Орландо Блум, Тиль Швайгер, Кристоф Вальц, Логан Лерман, Мэтью Макфейден, Рэй Стивенсон, Люк Эванс, Мадс Миккельсен, Габриэлла Уайлд-Описание: Молодой д’Артаньян покинул родной дом и отправился в Париж, надеясь на место в полку мушкетёров. По случайности в один день он обидел сразу троих мушкетёров — Атоса, Портоса и Арамиса — и получил от всех троих вызовы на дуэль. Но дуэль была прервана появлением гвардейцев кардинала, которые хотели арестовать их за нарушение указа о запрете дуэлей. Д’Артаньян и три мушкетера победили превосходящего противника и стали друзьями. Теперь они должны остановить злобного Кардинала Ришелье и столкнутся с герцогом Бэкингемом, и предательницей Миледи Де Винтер.- -Качество видео: HDRip |Рип BDRip 1080p|
Формат видео: AVI
Видео: 720x304 (2.35:1), 23.976 fps, XviD build 50 ~1421 kbps avg, 0.27 bit/pixel
Аудио: 48 kHz, AC3 Dolby Digital, 3/2 (L,C,R,l,r) LFE ch, ~448.00 kbps avg
Скачать: Сэмпл-

MediaInfo

General
Complete name : Mushketery_HDRip_[youtracker.net]_by_Scarabey.avi
Format : AVI
Format/Info : Audio Video Interleave
File size : 1.45 GiB
Duration : 1h 50mn
Overall bit rate : 1 879 Kbps
Writing application : VirtualDubMod 1.5.10.2 (build 2540/release)
Writing library : VirtualDubMod build 2540/release
Video
ID : 0
Format : MPEG-4 Visual
Format profile : Advanced Simple@L5
Format settings, BVOP : 1
Format settings, QPel : No
Format settings, GMC : No warppoints
Format settings, Matrix : Custom
Codec ID : XVID
Codec ID/Hint : XviD
Duration : 1h 50mn
Bit rate : 1 422 Kbps
Width : 720 pixels
Height : 304 pixels
Display aspect ratio : 2.35:1
Frame rate : 23.976 fps
Color space : YUV
Chroma subsampling : 4:2:0
Bit depth : 8 bits
Scan type : Progressive
Compression mode : Lossy
Bits/(Pixel*Frame) : 0.271
Stream size : 1.10 GiB (76%)
Writing library : XviD 1.2.1 (UTC 2008-12-04)
Audio
ID : 1
Format : AC-3
Format/Info : Audio Coding 3
Mode extension : CM (complete main)
Codec ID : 2000
Duration : 1h 50mn
Bit rate mode : Constant
Bit rate : 448 Kbps
Channel(s) : 6 channels
Channel positions : Front: L C R, Side: L R, LFE
Sampling rate : 48.0 KHz
Bit depth : 16 bits
Compression mode : Lossy
Stream size : 354 MiB (24%)
Alignment : Split accross interleaves
Interleave, duration : 42 ms (1.00 video frame)
Interleave, preload duration : 500 ms

Скриншот c названием фильма

Скриншоты

[Profile]  [PM] 
Display posts:    
Reply to topic

Current time is: 27-Nov 16:00

All times are UTC + 2



You cannot post new topics in this forum
You cannot reply to topics in this forum
You cannot edit your posts in this forum
You cannot delete your posts in this forum
You cannot vote in polls in this forum
You cannot attach files in this forum
You cannot download files in this forum