Под наблюдением / Обнажение / Exposed (Филипп Ганьон / Philippe Gagnon) [2011, Канада, Триллер, криминал, HDTVRip] MVO

Reply to topic
 
Author
Message

Anonym ®

Gender: Unknown

Reputation: 55 [+] [-]

Anonym · Post 10-May-2012 00:03

[Quote] 

Под наблюдением / Обнажение / Exposed


Страна: Канада
Жанр: Триллер, криминал
Год выпуска: 2011
Продолжительность: 01:25:24
Перевод: Профессиональный (многоголосый закадровый)
Cубтитры: нет
Режиссер: Филипп Ганьон / Philippe Gagnon

В ролях: Джоди Лин О'Киф, Питер Стеббингс, Дэвид Орт, Рэй Галлетти, Джеймс А. Вудс, Кэролайн Редекопп, Лука Палладини, Мелани Сен-Пьер
Описание: Молодая учительница Эмили Беннетт пытается восстановить свою репутацию после того, как кто-то разослал ее ученикам смонтированные порнографические фото с ее "участием". Вскоре она узнает, что этот инцидент связан с похищением другой молодой женщины, и что она - следующая мишень похитителя.
Сэмпл: http://multi-up.com/698941
Качество видео: HDTVRip [исходник неизвестен]
Формат видео: AVI
Видео: 720x416 (1.73:1), 59.940 fps, XviD build 50 ~1847 kbps avg, 0.10 bit/pixel
Аудио 1: 48 kHz, AC3 Dolby Digital, 2/0 (L,R) ch, ~224 kbps |Rus
Аудио 2: 48 kHz, AC3 Dolby Digital, 2/0 (L,R) ch, ~224 kbps |Orignal

MediaInfo

General
Complete name : C:\Documents and Settings\Admin\Мои документы\Downloads\Exposed.2011.P.HDTVRip.avi
Format : AVI
Format/Info : Audio Video Interleave
File size : 1.46 GiB
Duration : 1h 29mn
Overall bit rate : 2 331 Kbps
Writing application : VirtualDubModRus 1.5.10.2 (build 2542/release)
Writing library : VirtualDubMod build 2542/release
Video
ID : 0
Format : MPEG-4 Visual
Format profile : Advanced Simple@L5
Format settings, BVOP : Yes
Format settings, QPel : No
Format settings, GMC : No warppoints
Format settings, Matrix : Default (H.263)
Codec ID : XVID
Codec ID/Hint : XviD
Duration : 1h 29mn
Bit rate : 1 848 Kbps
Width : 720 pixels
Height : 416 pixels
Display aspect ratio : 16:9
Frame rate : 59.940 fps
Resolution : 8 bits
Colorimetry : 4:2:0
Scan type : Progressive
Bits/(Pixel*Frame) : 0.103
Stream size : 1.16 GiB (79%)
Writing library : XviD 1.2.1 (UTC 2008-12-04)
Audio #1
ID : 1
Format : AC-3
Format/Info : Audio Coding 3
Codec ID : 2000
Duration : 1h 29mn
Bit rate mode : Constant
Bit rate : 224 Kbps
Channel(s) : 2 channels
Channel positions : L R
Sampling rate : 48.0 KHz
Stream size : 144 MiB (10%)
Alignment : Split accross interleaves
Interleave, duration : 17 ms (1.00 video frame)
Interleave, preload duration : 500 ms
Audio #2
ID : 2
Format : AC-3
Format/Info : Audio Coding 3
Codec ID : 2000
Duration : 1h 29mn
Bit rate mode : Constant
Bit rate : 224 Kbps
Channel(s) : 2 channels
Channel positions : L R
Sampling rate : 48.0 KHz
Stream size : 144 MiB (10%)
Alignment : Split accross interleaves
Interleave, duration : 17 ms (1.00 video frame)
Interleave, preload duration : 500 ms

Скриншоты

 
Display posts:    
Reply to topic

Current time is: 27-Nov 01:09

All times are UTC + 2



You cannot post new topics in this forum
You cannot reply to topics in this forum
You cannot edit your posts in this forum
You cannot delete your posts in this forum
You cannot vote in polls in this forum
You cannot attach files in this forum
You cannot download files in this forum