Женщина в черном / The Woman in Black (Джеймс Уоткинс / James Watkins) [2012, ужасы, триллер, драма, HDRip] VO Сергей Фурман + original (eng) + sub (eng)

Reply to topic
 
Author
Message

Anonym ®

Gender: Unknown

Reputation: 55 [+] [-]

Anonym · Post 10-May-2012 00:25

[Quote] 

Женщина в черном / The Woman in Black
«Только не смотри на нее»
Год выхода: 2012
Страна: Швеция, Канада, Великобритания
Жанр: ужасы, триллер, драма
Продолжительность: 01:35:19
Перевод: Одноголосый закадровый [Сергей Фурман] + Оригинальная дорожка (английский) отдельно
Субтитры: Английские внешние отдельно
Релиз: Upload - самые горячие релизы Беларуси (.BY)
Режиссер: Джеймс Уоткинс / James Watkins
В ролях: Дэниэл Рэдклифф, Кьяран Хайндс, Джанет МакТир, Дэвид Бурк, Шон Дули, Эмма Шори, Хэрмон Молли, Софи Стаки, Миша Хэндли, Джессика Рэйне и др.
О фильме: На дворе — конец девятнадцатого века, но, хотя люди пользуются автомобилями, железными дорогами, и телеграфом, человек по-прежнему бессилен перед проявлениями сверхъестественного. Молодой лондонский юрист Артур Киппс вынужден оставить своего трехлетнего сына и отправиться в командировку в уединенную северную деревушку, чтобы составить реестр документов, оставшихся от скончавшегося хозяина поместья Ил Марш. Добравшись до места, и пообщавшись с негостеприимными местными жителями, он начинает понимать, что над деревушкой нависла тень мрачной тайны. Когда же рядом со старым кладбищем ему на глаза попадается загадочная женщина, одетая в черное, это малозначительное происшествие знаменует начало череды леденящих кровь смертей в семьях обитателей деревни.
Доп. информация:
Знаете ли вы, что...* Фильм основан на одноимённом романе британской писательницы Сюзан Хилл, впервые опубликованном в октябре 1983 года.

Далее:

* В 1987 году по книге Сюзан Хилл была поставлена пьеса, дебютировавшая в театре Стивена Джозефа в городе Сканторп. Два года спустя пьеса переехала в Вест-Энд, где и продолжает идти до настоящего времени.
* Первоначально продюсеры фильма рассматривали возможность создания его в 3D, но в последующем от этой идеи было решено отказаться.
* Мальчик, играющий сына героя Дэниэла Рэдклиффа в фильме, на самом деле является крёстным сыном молодого актера. Это предложение в процессе кастинга сделал сам Дэниэл Рэдклифф.
* Музыкальные шкатулки и механические игрушки в сцене в детской были реальными антикварными предметами того периода, позаимствованными на время съёмок у коллекционера.
* Машина персонажа Кирена Хайдза это Rolls-Royce Silver Ghost. Этот уникальный автомобиль считается самым дорогим в мире со страховой стоимостью 35 миллионов долларов в 2005 году. На момент съёмок стоимость произведённого в 1907 году автомобиля оценивалась в 57 миллионов долларов.
* Эдриан Роулинз, актёр, сыгравший отца Гарри Поттера, был главным героем фильма «Женщина в черном» 1989-го года.
Качество: HDRip [The.Woman.In.Black.2012.1080p.BluRay.X264-BLOW [PublicHD]]
Формат: avi
Видео: 720x304 (2.37:1), 23.976 fps, XviD build 64 ~1767 kbps avg, 0.34 bit/pixel
Аудио #1: 48 kHz, AC3 Dolby Digital, 3/2 (L,C,R,l,r) + LFE ch, ~448.00 kbps avg rus
Аудио #2: 48 kHz, AC3 Dolby Digital, 3/2 (L,C,R,l,r) + LFE ch, ~448.00 kbps avg eng

Скриншоты:


Примечание: Русская дорога получена наложением чистого голоса на центральный канал оригинальной английской дорожки. Чистый голос любезно предоставил Сергей Фурман, за что ему огромное спасибо!

MediaInfo:

Общее
Полное имя                               : Zhenwina.v.chernom.2012.HDRip.XviD.AC3.rus.AVO.avi
Формат                                   : AVI
Формат/Информация                        : Audio Video Interleave
Размер файла                             : 1,48 Гбайт
Продолжительность                        : 1 ч. 35 м.
Общий поток                              : 2225 Кбит/сек
Название фильма                          : The Woman in Black
Режиссёр                                 : James Watkins
Жанр                                     : Horror
Программа кодирования                    : VirtualDubMod 1.5.10.2 (build 2540/release)
Формат оригинала/Имя                     : Movie
Видео
Идентификатор                            : 0
Формат                                   : MPEG-4 Visual
Профиль формата                          : Advanced Simple@L5
Параметр BVOP формата                    : 1
Параметр QPel формата                    : Нет
Параметр GMC формата                     : Без точки перехода
Параметр матрицы формата                 : Выборочная
Идентификатор кодека                     : XVID
Идентификатор кодека/Подсказка           : XviD
Продолжительность                        : 1 ч. 35 м.
Битрейт                                  : 1768 Кбит/сек
Ширина                                   : 720 пикселей
Высота                                   : 304 пикселя
Соотношение сторон                       : 2,35:1
Частота кадров                           : 23,976 кадра/сек
Цветовое пространство                    : YUV
Субдискретизация насыщенности            : 4:2:0
Битовая глубина                          : 8 бит
Тип развёртки                            : Прогрессивная
Метод сжатия                             : С потерями
Бит/(Пиксели*Кадры)                      : 0.337
Размер потока                            : 1,18 Гбайт (79%)
Библиотека кодирования                   : XviD 64
Аудио
Идентификатор                            : 1
Формат                                   : AC-3
Формат/Информация                        : Audio Coding 3
Расширение режима                        : CM (complete main)
Параметр Endianness формата              : Big
Идентификатор кодека                     : 2000
Продолжительность                        : 1 ч. 35 м.
Вид битрейта                             : Постоянный
Битрейт                                  : 448 Кбит/сек
Каналы                                   : 6 каналов
Расположение каналов                     : Front: L C R, Side: L R, LFE
Частота                                  : 48,0 КГц
Битовая глубина                          : 16 бит
Метод сжатия                             : С потерями
Размер потока                            : 305 Мбайт (20%)
Выравнивание                             : Разделение по промежуткам
Продолжительность промежутка             : 42  мс. (1,00 видеокадр)
Время предзагрузки промежутка            : 500  мс.
---
 
Display posts:    
Reply to topic

Current time is: 03-Dec 08:40

All times are UTC + 2



You cannot post new topics in this forum
You cannot reply to topics in this forum
You cannot edit your posts in this forum
You cannot delete your posts in this forum
You cannot vote in polls in this forum
You cannot attach files in this forum
You cannot download files in this forum