Учитель на замену / Отчужденность / Detachment (Тони Кэй / Tony Kaye) [2011, США, драма, HDTVRip] VO + Sub Rus + Original Eng

Reply to topic
 
Author
Message

Anonym ®

Gender: Unknown

Reputation: 55 [+] [-]

Anonym · Post 12-May-2012 17:59

[Quote] 

Учитель на замену / Отчужденность / Detachment
Страна: США
Жанр: драма
Год выпуска: 2011
Продолжительность: 01:36:53
Перевод: Одноголосый закадровый (Присутствует ненормативная лексика)
Cубтитры: русские
Оригинальная аудиодорожка: английский (отдельно)
Режиссер: Тони Кэй / Tony Kaye
В ролях: Эдриан Броуди, Кристина Хендрикс, Брайан Крэнстон, Люси Лью, Джеймс Каан, Марша Гэй Харден, Блайт Даннер, Сами Гэйл, Тим Блэйк Нельсон, Уильям Питерсен
Описание: Генри Барт (Эдриан Броуди) работает учителем на замену. Он катается из города в город, заменяя заболевших или уехавших учителей максимум на месяц. Генри отличный специалист и великолепный педагог. Зачем, спрашивается, ему нужна такая сомнительная работа? Он просто не хочет привыкать и привязываться к ученикам, и на то у него есть свои личные причины. В этот раз он оказался, пожалуй, в официальном представительстве ада в конкретно взятом штате. Разврат, наркотики, алкоголь, оружие, оскорбления, - проще сказать чего нет в этой школе. Работа учителем здесь превращается в работу сапёра без миноискателя.
Доп. информация: Из аудиоряда убрана накладка в финальных титрах
IMDB: 7.6/10
Сэмпл: http://multi-up.com/699226
Качество видео: HDTVRip
Формат видео: AVI
Видео: 720x400 (1.80:1), 23.976 fps, XviD build 65 ~1758 kbps avg, 0.25 bit/pixel
Аудио 1: 48 kHz, AC3 Dolby Digital, 3/2 (L,C,R,l,r) ch, ~384 kbps VO
Аудио 2: 48 kHz, AC3 Dolby Digital, 3/2 (L,C,R,l,r) + LFE ch, ~384 kbps Original / отдельно
Формат субтитров: отключаемые (SRT)

MediaInfo

General
Complete name : Detachment.2011.VO.HDTVRip.avi
Format : AVI
Format/Info : Audio Video Interleave
File size : 1.46 GiB
Duration : 1h 36mn
Overall bit rate : 2 152 Kbps
Writing application : VirtualDubMod 1.5.10.3 | www.virtualdub-fr.org || (build 2550/release)
Writing library : VirtualDubMod build 2550/release
Video
ID : 0
Format : MPEG-4 Visual
Format profile : Advanced Simple@L5
Format settings, BVOP : 1
Format settings, QPel : No
Format settings, GMC : No warppoints
Format settings, Matrix : Custom
Codec ID : XVID
Codec ID/Hint : XviD
Duration : 1h 36mn
Bit rate : 1 759 Kbps
Width : 720 pixels
Height : 400 pixels
Display aspect ratio : 16:9
Frame rate : 23.976 fps
Color space : YUV
Chroma subsampling : 4:2:0
Bit depth : 8 bits
Scan type : Progressive
Compression mode : Lossy
Bits/(Pixel*Frame) : 0.255
Stream size : 1.19 GiB (82%)
Writing library : XviD 65
Audio
ID : 1
Format : AC-3
Format/Info : Audio Coding 3
Mode extension : CM (complete main)
Format settings, Endianness : Big
Codec ID : 2000
Duration : 1h 36mn
Bit rate mode : Constant
Bit rate : 384 Kbps
Channel(s) : 5 channels
Channel positions : Front: L C R, Side: L R
Sampling rate : 48.0 KHz
Bit depth : 16 bits
Compression mode : Lossy
Stream size : 266 MiB (18%)
Alignment : Split accross interleaves
Interleave, duration : 42 ms (1.00 video frame)
Interleave, preload duration : 500 ms

Скриншот c названием фильма

Скриншоты


 
Display posts:    
Reply to topic

Current time is: 27-Nov 16:11

All times are UTC + 2



You cannot post new topics in this forum
You cannot reply to topics in this forum
You cannot edit your posts in this forum
You cannot delete your posts in this forum
You cannot vote in polls in this forum
You cannot attach files in this forum
You cannot download files in this forum