«Весёлые» каникулы / Get the Gringo (Адриан Грюнберг / Adrian Grunberg) [2012, США, боевик, комедия, DVDRip] Dub [лицензия]

Reply to topic
 
Author
Message

Anonym ®

Gender: Unknown

Reputation: 5 [+] [-]

Anonym · Post 04-Jun-2012 17:27

[Quote] 

«Весёлые» каникулы / Get the Gringo- Страна: США
Жанр: боевик, комедия
Год выпуска: 2012
Продолжительность: 01:32:03-Перевод: Профессиональный (дублированный) [лицензия]
Cубтитры: нет
Режиссер: Адриан Грюнберг / Adrian Grunberg-В ролях: Мэл Гибсон, Кевин Эрнандез, Долорес Эредия, Хесус Очоа, Петер Стормаре, Дин Норрис, Боб Гантон, Скотт Коэн, Патрик Бошо, Стефани Николь Лемелин-Описание: Лента расскажет о пойманном мексиканскими властями преступнике, заключенном в полную наркотиков и насилия тюрьму…- -Качество видео: DVDRip | Сэмпл
Формат видео: AVI
Видео: XviD, 720x304, 2.35:1, 25.000 fps, 1785 Kb/s
Аудио: AC3, 48000 KHz, 384 Kb/s (6 ch)

MediaInfo

General
Complete name : E:\Новое\Vesjolye.kanikuly.2012.D.DVDRip.avi
Format : AVI
Format/Info : Audio Video Interleave
File size : 1.46 GiB
Duration : 1h 32mn
Overall bit rate : 2 267 Kbps
Writing application : VirtualDubMod 1.5.10.3 (build 2550/release)
Video
ID : 0
Format : MPEG-4 Visual
Format profile : Advanced Simple@L5
Format settings, BVOP : 2
Format settings, QPel : No
Format settings, GMC : No warppoints
Format settings, Matrix : Custom
Codec ID : XVID
Codec ID/Hint : XviD
Duration : 1h 32mn
Bit rate : 1 785 Kbps
Width : 720 pixels
Height : 304 pixels
Display aspect ratio : 2.35:1
Frame rate : 25.000 fps
Color space : YUV
Chroma subsampling : 4:2:0
Bit depth : 8 bits
Scan type : Progressive
Compression mode : Lossy
Bits/(Pixel*Frame) : 0.326
Stream size : 1.15 GiB (79%)
Writing library : XviD 1.2.1 (UTC 2008-12-04)
Audio
ID : 1
Format : AC-3
Format/Info : Audio Coding 3
Mode extension : CM (complete main)
Format settings, Endianness : Big
Codec ID : 2000
Duration : 1h 32mn
Bit rate mode : Constant
Bit rate : 384 Kbps
Channel(s) : 6 channels
Channel positions : Front: L C R, Side: L R, LFE
Sampling rate : 48.0 KHz
Bit depth : 16 bits
Compression mode : Lossy
Stream size : 253 MiB (17%)
Alignment : Split accross interleaves

Скриншот с названием фильма

 
Display posts:    
Reply to topic

Current time is: 27-Nov 01:16

All times are UTC + 2



You cannot post new topics in this forum
You cannot reply to topics in this forum
You cannot edit your posts in this forum
You cannot delete your posts in this forum
You cannot vote in polls in this forum
You cannot attach files in this forum
You cannot download files in this forum