(Eurodance) Dr. Alban - Hit Collection (2000) FLAC (image+.cue), lossless

Reply to topic
 
Author
Message

mario-OS ®

Gender: Male

Longevity: 11 years

Posts: 575

Reputation: 31 [+] [-]

Location: ...из страны, где шлюха стоит всего лишь доллар, солнце всегда и везде (с)

mario-OS · Post 04-Mar-2010 19:14

[Quote] 

-Dr. Alban - Hit Collection- Страна: Sweden
Жанр: Eurodance
Год выпуска: 2000
Формат: FLAC (image + .cue)
Битрейт аудио: lossless
Продолжительность: 00:73:38-Треклист:

01.Hard Pan Di Drums (06:23)
02.Gimme Dat Lovin (04:08)
03.No Coke (06:48)
04.Sweet Reggae Music (05:31)
05.Hello Africa (06:41)
06.Stop The Pollution (03:45)
07.U & Me (03:49)
08.One Love (04:16)
09.Sing Hallelujah (04:04)
10.It's My Life (04:04)
11.Look Who's Talking (05:25)
12.Let The Beat Go On (04:06)
13.Away From Home (03:21)
14.This Time I'm Free (03:53)
15.Hallelujah Day (03:41)
16.Born In Africa (03:32)
17.Reggae Music Gonna Move Ya (04:10)
-

Back

Cue Sheet

REM GENRE Eurodance
REM DISCID E8123911
REM COMMENT "ExactAudioCopy v0.99pb5"
PERFORMER "Dr.ALBAN"
TITLE "HIT COLLECTION"
FILE "Dr.ALBAN - HIT COLLECTION.flac" WAVE
TRACK 01 AUDIO
TITLE "Hard Pan Di Drums"
PERFORMER "Dr.ALBAN"
INDEX 01 00:00:00
TRACK 02 AUDIO
TITLE "Gimme Dat Lovin"
PERFORMER "Dr.ALBAN"
INDEX 01 06:23:47
TRACK 03 AUDIO
TITLE "No Coke"
PERFORMER "Dr.ALBAN"
INDEX 01 10:32:09
TRACK 04 AUDIO
TITLE "Sweet Reggae Music"
PERFORMER "Dr.ALBAN"
INDEX 01 17:20:31
TRACK 05 AUDIO
TITLE "Hello Africa"
PERFORMER "Dr.ALBAN"
INDEX 01 22:51:43
TRACK 06 AUDIO
TITLE "Stop The Pollution"
PERFORMER "Dr.ALBAN"
INDEX 01 29:33:32
TRACK 07 AUDIO
TITLE "U & Me"
PERFORMER "Dr.ALBAN"
INDEX 01 33:18:39
TRACK 08 AUDIO
TITLE "One Love"
PERFORMER "Dr.ALBAN"
INDEX 01 37:08:16
TRACK 09 AUDIO
TITLE "Sing Hallelujah!"
PERFORMER "Dr.ALBAN"
INDEX 01 41:24:66
TRACK 10 AUDIO
TITLE "It's My Life"
PERFORMER "Dr.ALBAN"
INDEX 01 45:28:73
TRACK 11 AUDIO
TITLE "Look Who's Talking"
PERFORMER "Dr.ALBAN"
INDEX 01 49:33:00
TRACK 12 AUDIO
TITLE "Let The Beat Go On"
PERFORMER "Dr.ALBAN"
INDEX 01 54:58:54
TRACK 13 AUDIO
TITLE "Away From Home"
PERFORMER "Dr.ALBAN"
INDEX 01 59:05:51
TRACK 14 AUDIO
TITLE "This Time I'm Free"
PERFORMER "Dr.ALBAN"
INDEX 01 62:27:41
TRACK 15 AUDIO
TITLE "Hallelujah Day"
PERFORMER "Dr.ALBAN"
INDEX 01 66:20:70
TRACK 16 AUDIO
TITLE "Born In Africa"
PERFORMER "Dr.ALBAN"
INDEX 01 70:02:22
TRACK 17 AUDIO
TITLE "Reggae Music Gonna Move Ya"
PERFORMER "Dr.ALBAN"
INDEX 01 73:35:09

Отчет EAC

Exact Audio Copy V0.99 prebeta 5 from 4. May 2009
Отчёт EAC об извлечении, выполненном 14. ноября 2009, 21:32
Dr.ALBAN / HIT COLLECTION
Дисковод: ASUS DRW-1814BLT Adapter: 2 ID: 0
Режим чтения : Достоверность
Использование точного потока : Да
Отключение кэша аудио : Да
Использование указателей C2 : Нет
Коррекция смещения при чтении : 6
Способность читать области Lead-in и Lead-out : Нет
Заполнение пропущенных сэмплов тишиной : Да
Удаление блоков с тишиной в начале и конце : Нет
При вычислениях CRC использовались нулевые сэмплы : Да
Интерфейс : Установленный внешний ASPI-интерфейс
Выходной формат : Внутренние WAV-операции
Формат сэмплов : 44.100 Гц; 16 бит; стерео
TOC извлечённого CD
Трек | Старт | Длительность | Начальный сектор | Конечный сектор
---------------------------------------------------------------------
1 | 0:00.00 | 6:23.47 | 0 | 28771
2 | 6:23.47 | 4:08.37 | 28772 | 47408
3 | 10:32.09 | 6:48.22 | 47409 | 78030
4 | 17:20.31 | 5:31.12 | 78031 | 102867
5 | 22:51.43 | 6:41.64 | 102868 | 133006
6 | 29:33.32 | 3:45.07 | 133007 | 149888
7 | 33:18.39 | 3:49.52 | 149889 | 167115
8 | 37:08.16 | 4:16.50 | 167116 | 186365
9 | 41:24.66 | 4:04.07 | 186366 | 204672
10 | 45:28.73 | 4:04.02 | 204673 | 222974
11 | 49:33.00 | 5:25.54 | 222975 | 247403
12 | 54:58.54 | 4:06.72 | 247404 | 265925
13 | 59:05.51 | 3:21.65 | 265926 | 281065
14 | 62:27.41 | 3:53.29 | 281066 | 298569
15 | 66:20.70 | 3:41.27 | 298570 | 315171
16 | 70:02.22 | 3:32.62 | 315172 | 331133
17 | 73:35.09 | 4:10.29 | 331134 | 349912
Характеристики диапазона извлечения и сообщения об ошибках
Выбранный диапазон
Имя файла E:\Lossless\Dr.ALBAN - HIT COLLECTION.wav
Пиковый уровень 100.0 %
Качество диапазона 99.9 %
CRC копии AFEE83CB
Копирование... OK
Ошибок не произошло
AccurateRip: сводка
Трек 1 нет в базе данных
Трек 2 нет в базе данных
Трек 3 нет в базе данных
Трек 4 нет в базе данных
Трек 5 нет в базе данных
Трек 6 нет в базе данных
Трек 7 нет в базе данных
Трек 8 нет в базе данных
Трек 9 нет в базе данных
Трек 10 нет в базе данных
Трек 11 нет в базе данных
Трек 12 нет в базе данных
Трек 13 нет в базе данных
Трек 14 нет в базе данных
Трек 15 нет в базе данных
Трек 16 нет в базе данных
Трек 17 нет в базе данных
Ни одного трека нет в базе AccurateRip
Конец отчёта
-Доп.информация: Рип с собственного диска,сканы в раздаче.Всем приятного прослушивания!-
"Mario-os" release style ®
[Profile]  [PM] 
Display posts:    
Reply to topic

Current time is: 20-Sep 22:36

All times are UTC + 2



You cannot post new topics in this forum
You cannot reply to topics in this forum
You cannot edit your posts in this forum
You cannot delete your posts in this forum
You cannot vote in polls in this forum
You cannot attach files in this forum
You cannot download files in this forum