(Eurodance) Culture Beat - Inside Out (2CD) - 1995, FLAC (image+.cue), lossless

Reply to topic
 
Author
Message

mario-OS ®

Gender: Male

Longevity: 10 years

Posts: 575

Reputation: 31 [+] [-]

Location: ...из страны, где шлюха стоит всего лишь доллар, солнце всегда и везде (с)

mario-OS · Post 24-Mar-2010 13:11

[Quote] 

Culture Beat - Inside Out (2CD)- Жанр: Eurodance
Год выпуска диска: 1995
Производитель диска: Germany Dance Pool 481404 2-9
Аудио кодек: FLAC
Тип рипа: image+.cue
Битрейт аудио: lossless
Продолжительность: 1:30:18
-Собственный рип, сканы Hi-Res внутри...

CD1 - Inside Out

Каталог: 481404 2
Продолжительность: 1:08:08
Трэклист:
01. Intro 2:24
02. Walk The Same Line 6:00
03. Get It Right 4:12
04. Troubles 5:28
05. Nothing Can Come... 4:55
06. Take Me Away 5:25
07. Miracle 5:35
08. Inside Out 5:55
09. Crying In The Rain 4:37
10. Do I Have You? 5:30
11. Under My Skin 5:00
12. Worth The Wait 5:07
13. In The Mood 5:33
14. Inside Out (Not Normal Mix) 2:28
-

Лог EAC

Exact Audio Copy V0.99 prebeta 5 from 4. May 2009
Отчёт EAC об извлечении, выполненном 14. марта 2010, 16:26
Culture Beat / Inside Out
Дисковод: _NEC DVD_RW ND-4571A Adapter: 0 ID: 2
Режим чтения : Достоверность
Использование точного потока : Да
Отключение кэша аудио : Да
Использование указателей C2 : Нет
Коррекция смещения при чтении : 48
Способность читать области Lead-in и Lead-out : Нет
Заполнение пропущенных сэмплов тишиной : Да
Удаление блоков с тишиной в начале и конце : Нет
При вычислениях CRC использовались нулевые сэмплы : Да
Интерфейс : Встроенный Win32-интерфейс для Win NT/2000
Выходной формат : Пользовательский кодировщик
Выбранный битрейт : 768 kBit/s
Качество : Высокий
Добавление ID3-тэга : Нет
Утилита сжатия : C:\Program Files\Exact Audio Copy\FLAC\FLAC.EXE
Дополнительные параметры : -6 -V -T "ARTIST=%a" -T "TITLE=%t" -T "ALBUM=%g" -T "DATE=%y" -T "TRACKNUMBER=%n" -T "GENRE=%m" -T "COMMENT=%e" %s -o %d
TOC извлечённого CD
Трек | Старт | Длительность | Начальный сектор | Конечный сектор
---------------------------------------------------------------------
1 | 0:00.00 | 2:24.22 | 0 | 10821
2 | 2:24.22 | 5:59.65 | 10822 | 37811
3 | 8:24.12 | 4:11.38 | 37812 | 56674
4 | 12:35.50 | 5:28.25 | 56675 | 81299
5 | 18:04.00 | 4:54.50 | 81300 | 103399
6 | 22:58.50 | 5:24.50 | 103400 | 127749
7 | 28:23.25 | 5:35.00 | 127750 | 152874
8 | 33:58.25 | 5:55.25 | 152875 | 179524
9 | 39:53.50 | 4:36.50 | 179525 | 200274
10 | 44:30.25 | 5:30.12 | 200275 | 225036
11 | 50:00.37 | 5:00.00 | 225037 | 247536
12 | 55:00.37 | 5:07.00 | 247537 | 270561
13 | 60:07.37 | 5:33.13 | 270562 | 295549
14 | 65:40.50 | 2:27.42 | 295550 | 306616
Характеристики диапазона извлечения и сообщения об ошибках
Выбранный диапазон
Имя файла M:\Свои\Culture Beat - 1995 - Inside Out (Germany).wav
Пиковый уровень 98.3 %
Качество диапазона 100.0 %
CRC теста D876B236
CRC копии D876B236
Копирование... OK
Ошибок не произошло
AccurateRip: сводка
Трек 1 точное извлечение (доверие 27) [4F92064A]
Трек 2 точное извлечение (доверие 27) [7D89E21E]
Трек 3 точное извлечение (доверие 26) [22F7F21B]
Трек 4 точное извлечение (доверие 27) [8CE3C4DE]
Трек 5 точное извлечение (доверие 27) [8B058334]
Трек 6 точное извлечение (доверие 27) [F6FD42FC]
Трек 7 точное извлечение (доверие 27) [7761E83F]
Трек 8 точное извлечение (доверие 27) [825A628B]
Трек 9 точное извлечение (доверие 27) [830C4808]
Трек 10 точное извлечение (доверие 26) [5B881718]
Трек 11 точное извлечение (доверие 26) [05FF47DA]
Трек 12 точное извлечение (доверие 26) [BB15D624]
Трек 13 точное извлечение (доверие 26) [E3956890]
Трек 14 точное извлечение (доверие 26) [86850F20]
Все треки извлечены точно
Конец отчёта

CD2 - The Other Side (Bonus CD)

Каталог: 481404 9
Продолжительность: 22:10
Трэклист:
01. Inside Out (Not Loveland Master Mix 12') 9:01
02. Crying In The Rain (Sweetbox Funky 12' Mix) 7:10
03. Take Me Away (Sweetbox Hotpants Mix) 5:59
-

Лог EAC

Exact Audio Copy V0.99 prebeta 5 from 4. May 2009
Отчёт EAC об извлечении, выполненном 14. марта 2010, 16:37
Culture Beat / The Other Side (Bonus CD)
Дисковод: _NEC DVD_RW ND-4571A Adapter: 0 ID: 2
Режим чтения : Достоверность
Использование точного потока : Да
Отключение кэша аудио : Да
Использование указателей C2 : Нет
Коррекция смещения при чтении : 48
Способность читать области Lead-in и Lead-out : Нет
Заполнение пропущенных сэмплов тишиной : Да
Удаление блоков с тишиной в начале и конце : Нет
При вычислениях CRC использовались нулевые сэмплы : Да
Интерфейс : Встроенный Win32-интерфейс для Win NT/2000
Выходной формат : Пользовательский кодировщик
Выбранный битрейт : 768 kBit/s
Качество : Высокий
Добавление ID3-тэга : Нет
Утилита сжатия : C:\Program Files\Exact Audio Copy\FLAC\FLAC.EXE
Дополнительные параметры : -6 -V -T "ARTIST=%a" -T "TITLE=%t" -T "ALBUM=%g" -T "DATE=%y" -T "TRACKNUMBER=%n" -T "GENRE=%m" -T "COMMENT=%e" %s -o %d
TOC извлечённого CD
Трек | Старт | Длительность | Начальный сектор | Конечный сектор
---------------------------------------------------------------------
1 | 0:00.00 | 9:00.57 | 0 | 40556
2 | 9:00.57 | 7:09.73 | 40557 | 72804
3 | 16:10.55 | 5:58.57 | 72805 | 99711
Характеристики диапазона извлечения и сообщения об ошибках
Выбранный диапазон
Имя файла M:\Свои\Culture Beat - 1995 - The Other Side (Bonus CD) (Germany).wav
Пиковый уровень 98.4 %
Качество диапазона 100.0 %
CRC теста 720ABEFF
CRC копии 720ABEFF
Копирование... OK
Ошибок не произошло
AccurateRip: сводка
Трек 1 точное извлечение (доверие 2) [11D3A8EC]
Трек 2 точное извлечение (доверие 2) [741378F2]
Трек 3 точное извлечение (доверие 2) [3F95A988]
Все треки извлечены точно
Конец отчёта
---
"Mario-os" release style ®
[Profile]  [PM] 
Display posts:    
Reply to topic

Current time is: 18-Sep 16:46

All times are UTC + 2



You cannot post new topics in this forum
You cannot reply to topics in this forum
You cannot edit your posts in this forum
You cannot delete your posts in this forum
You cannot vote in polls in this forum
You cannot attach files in this forum
You cannot download files in this forum