(Eurodance) Ice MC - Music for Money (Maxi-Single) - 1996, FLAC (tracks + .cue), lossless

Reply to topic
 
Author
Message

mario-OS ®

Gender: Male

Longevity: 11 years

Posts: 575

Reputation: 31 [+] [-]

Location: ...из страны, где шлюха стоит всего лишь доллар, солнце всегда и везде (с)

mario-OS · Post 26-Mar-2010 19:45

[Quote] 

Ice MC - Music for Money (Maxi-Single)- Жанр: Eurodance
Год выпуска диска: 1996
Производитель диска:Germany
Аудио кодек: FLAC
Тип рипа:tracks + .cue
Битрейт аудио: lossless
Продолжительность: 00:23:35
-Трэклист:
1. Music For Money (Single Version) (3:27)
2. Music For Money (Radio Cut) Remix - Misar , Uwe Wagenknecht (3:22)
3. Music For Money (Maxi Club Mix) (5:40)
4. Music For Money (Static Mix) Remix - Misar , Uwe Wagenknecht (5:32)
5. Music For Money (Maxi MB Mellow Mix) (5:33)
-

Cue Sheet

REM GENRE "Dance / Disco"
REM DATE 1996
REM DISCID 2E058805
REM COMMENT "ExactAudioCopy v0.99pb4"
FILE "Ice Mc - 1996 - Maxi [FLAC]\01 - Music For Money ( Single Version ).wav" WAVE
TRACK 01 AUDIO
INDEX 01 00:00:00
TRACK 02 AUDIO
INDEX 00 03:24:72
FILE "Ice Mc - 1996 - Maxi [FLAC]\02 - Music For Money ( Radio Version ).wav" WAVE
INDEX 01 00:00:00
TRACK 03 AUDIO
INDEX 00 03:20:40
FILE "Ice Mc - 1996 - Maxi [FLAC]\03 - Music For Money ( Maxi Club Version ).wav" WAVE
INDEX 01 00:00:00
TRACK 04 AUDIO
INDEX 00 05:37:38
FILE "Ice Mc - 1996 - Maxi [FLAC]\04 - Music For Money ( Static Version ).wav" WAVE
INDEX 01 00:00:00
TRACK 05 AUDIO
INDEX 00 05:30:10
FILE "Ice Mc - 1996 - Maxi [FLAC]\05 - Music For Money ( Maxi Mb Mellow Version ).wav" WAVE
INDEX 01 00:00:00

Отчёт EAC

Exact Audio Copy V0.99 prebeta 4 from 23. January 2008
EAC extraction logfile from 16. May 2009, 19:52
Ice Mc / Maxi
Used drive : SlimtypeDVDRW SLW-831S Adapter: 1 ID: 1
Read mode : Secure
Utilize accurate stream : Yes
Defeat audio cache : Yes
Make use of C2 pointers : No
Read offset correction : 6
Overread into Lead-In and Lead-Out : No
Fill up missing offset samples with silence : Yes
Delete leading and trailing silent blocks : No
Null samples used in CRC calculations : Yes
Used interface : Native Win32 interface for Win NT & 2000
Gap handling : Appended to previous track
Used output format : User Defined Encoder
Selected bitrate : 320 kBit/s
Quality : High
Add ID3 tag : No
Command line compressor : C:\Program Files\Exact Audio Copy\Flac\flac.exe
Additional command line options : -V -8 -T "artist=%a" -T "title=%t" -T "album=%g" -T "date=%y" -T "tracknumber=%n" -T "genre=%m" %s
TOC of the extracted CD
Track | Start | Length | Start sector | End sector
---------------------------------------------------------
1 | 0:00.00 | 3:27.02 | 0 | 15526
2 | 3:27.02 | 3:22.50 | 15527 | 30726
3 | 6:49.52 | 5:40.28 | 30727 | 56254
4 | 12:30.05 | 5:32.47 | 56255 | 81201
5 | 18:02.52 | 5:33.30 | 81202 | 106206
Track 1
Filename D:\RIP\Ice Mc - 1996 - Maxi [FLAC]\01 - Music For Money ( Single Version ).wav
Pre-gap length 0:00:02.00
Peak level 98.2 %
Track quality 100.0 %
Test CRC 098F089B
Copy CRC 098F089B
Accurately ripped (confidence 2) [6A392E81]
Copy OK
Track 2
Filename D:\RIP\Ice Mc - 1996 - Maxi [FLAC]\02 - Music For Money ( Radio Version ).wav
Pre-gap length 0:00:02.05
Peak level 98.1 %
Track quality 100.0 %
Test CRC 33E67A55
Copy CRC 33E67A55
Accurately ripped (confidence 2) [4EE71703]
Copy OK
Track 3
Filename D:\RIP\Ice Mc - 1996 - Maxi [FLAC]\03 - Music For Money ( Maxi Club Version ).wav
Pre-gap length 0:00:02.10
Peak level 98.1 %
Track quality 99.9 %
Test CRC 71547BD2
Copy CRC 71547BD2
Accurately ripped (confidence 2) [BACD82FC]
Copy OK
Track 4
Filename D:\RIP\Ice Mc - 1996 - Maxi [FLAC]\04 - Music For Money ( Static Version ).wav
Pre-gap length 0:00:02.65
Peak level 98.1 %
Track quality 100.0 %
Test CRC 59579818
Copy CRC 59579818
Accurately ripped (confidence 1) [05E5F7F5]
Copy OK
Track 5
Filename D:\RIP\Ice Mc - 1996 - Maxi [FLAC]\05 - Music For Money ( Maxi Mb Mellow Version ).wav
Pre-gap length 0:00:02.37
Peak level 97.9 %
Track quality 99.9 %
Test CRC 09BDD1AB
Copy CRC 09BDD1AB
Accurately ripped (confidence 2) [EAEFC2AC]
Copy OK
All tracks accurately ripped
No errors occurred
End of status report
---"СПАСИБО!" и разносторонние комментарии будут приятны,
не дадут теме уйти в неизвестность,
а также сподвигнут релизёра выкладывать ещё и ещё.
---Доп.информация: Рип с собственного диска.Всем приятного прослушивания!-
"Mario-os" release style ®
[Profile]  [PM] 
Display posts:    
Reply to topic

Current time is: 05-Mar 19:29

All times are UTC + 2



You cannot post new topics in this forum
You cannot reply to topics in this forum
You cannot edit your posts in this forum
You cannot delete your posts in this forum
You cannot vote in polls in this forum
You cannot attach files in this forum
You cannot download files in this forum