(Pop) МакSим - Одиночка - 2009, FLAC (tracks+.cue), lossless

Reply to topic
 
Author
Message

mario-OS ®

Gender: Male

Longevity: 11 years

Posts: 575

Reputation: 31 [+] [-]

Location: ...из страны, где шлюха стоит всего лишь доллар, солнце всегда и везде (с)

mario-OS · Post 12-Dec-2009 21:25

[Quote] 

МакSим - Одиночка- Жанр: Pop
Год выпуска диска: 2009
Производитель диска: Россия
Аудио кодек: FLAC
Тип рипа:tracks+.cue
Битрейт аудио: lossless
Продолжительность: 00:43:28
Трэклист:-01. На радиоволнах
02. Портрет
03. Весна
04. Любовь - это яд
05. Дорога
06. Я люблю тебя
07. Странница
08. Птицы
09. Мама-кошка
10. Блюз
11. Одиночка
Бонусы
12. На радиоволнах (Kirbas GASpromo Remix)
13. На радиоволнах (Dj Fisun remix)

Доп. информация:
Exact Audio Copy V0.99 prebeta 5 from 4. May 2009
EAC extraction logfile from 12. December 2009, 17:55
Maksim / Odinochka (Special Edition)
Used drive : Optiarc DVD RW AD-7170S Adapter: 0 ID: 0
Read mode : Secure
Utilize accurate stream : Yes
Defeat audio cache : Yes
Make use of C2 pointers : No
Read offset correction : 48
Overread into Lead-In and Lead-Out : No
Fill up missing offset samples with silence : Yes
Delete leading and trailing silent blocks : No
Null samples used in CRC calculations : No
Used interface : Installed external ASPI interface
Gap handling : Appended to previous track
Used output format : Internal WAV Routines
Sample format : 44.100 Hz; 16 Bit; Stereo
TOC of the extracted CD
Track | Start | Length | Start sector | End sector
---------------------------------------------------------
1 | 0:00.00 | 3:52.63 | 0 | 17462
2 | 3:52.63 | 3:26.63 | 17463 | 32975
3 | 7:19.51 | 3:13.63 | 32976 | 47513
4 | 10:33.39 | 3:35.28 | 47514 | 63666
5 | 14:08.67 | 3:12.28 | 63667 | 78094
6 | 17:21.20 | 2:56.33 | 78095 | 91327
7 | 20:17.53 | 3:30.41 | 91328 | 107118
8 | 23:48.19 | 2:57.35 | 107119 | 120428
9 | 26:45.54 | 3:39.67 | 120429 | 136920
10 | 30:25.46 | 4:18.68 | 136921 | 156338
11 | 34:44.39 | 2:33.08 | 156339 | 167821
12 | 37:17.47 | 4:21.51 | 167822 | 187447
13 | 41:39.23 | 2:27.21 | 187448 | 198493
Track 1
Filename D:\Maksim\01. Maksim , Na Radiovolnah.wav
Pre-gap length 0:00:02.00
Peak level 100.0 %
Track quality 100.0 %
Copy CRC 2A900934
Copy OK
Track 2
Filename D:\Maksim\02. Maksim , Portret.wav
Pre-gap length 0:00:02.00
Peak level 98.8 %
Track quality 100.0 %
Copy CRC C64F7ADC
Copy OK
Track 3
Filename D:\Maksim\03. Maksim , Vesna.wav
Pre-gap length 0:00:02.00
Peak level 100.0 %
Track quality 100.0 %
Copy CRC DCB6002E
Copy OK
Track 4
Filename D:\Maksim\04. Maksim , Lubov Eto Yad.wav
Pre-gap length 0:00:02.00
Peak level 98.8 %
Track quality 100.0 %
Copy CRC 39587B9B
Copy OK
Track 5
Filename D:\Maksim\05. Maksim , Doroga.wav
Pre-gap length 0:00:02.00
Peak level 98.8 %
Track quality 100.0 %
Copy CRC 6D0E1A82
Copy OK
Track 6
Filename D:\Maksim\06. Maksim , Ya Lublu Tebya.wav
Pre-gap length 0:00:02.00
Peak level 98.8 %
Track quality 100.0 %
Copy CRC B1F80451
Copy OK
Track 7
Filename D:\Maksim\07. Maksim , Strannitsa.wav
Pre-gap length 0:00:02.00
Peak level 98.8 %
Track quality 100.0 %
Copy CRC 05C7CB16
Copy OK
Track 8
Filename D:\Maksim\08. Maksim , Ptitsi.wav
Pre-gap length 0:00:02.00
Peak level 98.8 %
Track quality 100.0 %
Copy CRC E5C1C2DA
Copy OK
Track 9
Filename D:\Maksim\09. Maksim , Mama-Koshka.wav
Pre-gap length 0:00:02.00
Peak level 98.8 %
Track quality 100.0 %
Copy CRC E5099F8C
Copy OK
Track 10
Filename D:\Maksim\10. Maksim , Blues.wav
Pre-gap length 0:00:02.00
Peak level 98.8 %
Track quality 100.0 %
Copy CRC 49C68336
Copy OK
Track 11
Filename D:\Maksim\11. Maksim , Odinochka.wav
Pre-gap length 0:00:02.00
Peak level 98.8 %
Track quality 99.9 %
Copy CRC FAB4AD59
Copy OK
Track 12
Filename D:\Maksim\12. Maksim , Na Radiovolnah (Kirbas Gaspromo Remix).wav
Pre-gap length 0:00:02.00
Peak level 98.8 %
Track quality 99.9 %
Copy CRC 4CD7C909
Copy OK
Track 13
Filename D:\Maksim\13. Maksim , Na Radiovolnah (Dj Fisun Remix).wav
Pre-gap length 0:00:02.00
Peak level 98.8 %
Track quality 100.0 %
Copy CRC B66B1346
Copy OK
No errors occurred
End of status report
------------------------------------------------------------
-
"Mario-os" release style ®
[Profile]  [PM] 
Display posts:    
Reply to topic

Current time is: 28-Feb 20:48

All times are UTC + 2



You cannot post new topics in this forum
You cannot reply to topics in this forum
You cannot edit your posts in this forum
You cannot delete your posts in this forum
You cannot vote in polls in this forum
You cannot attach files in this forum
You cannot download files in this forum