(Pop) Юрий Антонов - Зеркало (1993), FLAC (image+.cue), lossless

Reply to topic
 
Author
Message

STOJAK ®

Gender: Unknown

Longevity: 11 years

Posts: 21

Reputation: 0 [+] [-]

Location: Москва

STOJAK · Post 04-Feb-2010 14:39

[Quote] 

Юрий Антонов - Зеркало (Jeff Records)
Жанр: Pop
Год выпуска диска: 1993
Производитель диска: Россия - Jeff Records
Аудио кодек: FLAC
Тип рипа: image+.cue
Битрейт аудио: lossless
Продолжительность: 47:02
Трэклист:
01. Зеркало 3:37
02. Не забывай 3:52
03. Двадцать лет спустя 3:40
04. Вот как бывает 3:24
05. Мое богатство 2:37
06. Я иду тебе навстречу 3:50
07. Снегири 2:38
08. Крыша дома твоего 2:40
09. Анастасия 2:57
10. Завтра 3:37
11. Тебе 4:08
12. Белый теплоход 3:23
13. А где-то ... 3:59
14. Море 2:41

Доп. информация:
Абсолютно все рипы сделаны с оригинальных CD из моей коллекции !!!
Полные сканы обложек и дисков прилагаются (600dpi, PNG) !!!

Information

Обратите внимание !!!

Материал выложен ИСКЛЮЧИТЕЛЬНО для ознакомления, так что не забудьте, пожалуйста,
удалить его с жёсткого диска после ознакомления, пойти в магазин и купить оригинальное издание !!!

Back

Отчет EAC

Exact Audio Copy V0.99 prebeta 5 from 4. May 2009
Отчёт EAC об извлечении, выполненном 19. октября 2009, 7:23
Юрий Антонов / Зеркало
Дисковод: Optiarc DVD RW AD-5200A Adapter: 0 ID: 0
Режим чтения : Достоверность
Использование точного потока : Да
Отключение кэша аудио : Да
Использование указателей C2 : Нет
Коррекция смещения при чтении : 48
Способность читать области Lead-in и Lead-out : Нет
Заполнение пропущенных сэмплов тишиной : Да
Удаление блоков с тишиной в начале и конце : Нет
При вычислениях CRC использовались нулевые сэмплы : Да
Интерфейс : Установленный внешний ASPI-интерфейс
Выходной формат : Внутренние WAV-операции
Формат сэмплов : 44.100 Гц; 16 бит; стерео
TOC извлечённого CD
Трек | Старт | Длительность | Начальный сектор | Конечный сектор
---------------------------------------------------------------------
1 | 0:00.25 | 3:37.25 | 25 | 16324
2 | 3:37.50 | 3:51.40 | 16325 | 33689
3 | 7:29.15 | 3:39.60 | 33690 | 50174
4 | 11:09.00 | 3:23.42 | 50175 | 65441
5 | 14:32.42 | 2:36.63 | 65442 | 77204
6 | 17:09.30 | 3:49.67 | 77205 | 94446
7 | 20:59.22 | 2:38.15 | 94447 | 106311
8 | 23:37.37 | 2:39.40 | 106312 | 118276
9 | 26:17.02 | 2:57.00 | 118277 | 131551
10 | 29:14.02 | 3:37.33 | 131552 | 147859
11 | 32:51.35 | 4:08.05 | 147860 | 166464
12 | 36:59.40 | 3:23.27 | 166465 | 181716
13 | 40:22.67 | 3:59.00 | 181717 | 199641
14 | 44:21.67 | 2:41.08 | 199642 | 211724
Характеристики диапазона извлечения и сообщения об ошибках
Выбранный диапазон
Имя файла E:\Юрий Антонов - Зеркало\Юрий Антонов - Зеркало.wav
Пиковый уровень 66.2 %
Качество диапазона 100.0 %
CRC теста 69476D4C
CRC копии 69476D4C
Копирование... OK
Ошибок не произошло
AccurateRip: сводка
Трек 1 нет в базе данных
Трек 2 нет в базе данных
Трек 3 нет в базе данных
Трек 4 нет в базе данных
Трек 5 нет в базе данных
Трек 6 нет в базе данных
Трек 7 нет в базе данных
Трек 8 нет в базе данных
Трек 9 нет в базе данных
Трек 10 нет в базе данных
Трек 11 нет в базе данных
Трек 12 нет в базе данных
Трек 13 нет в базе данных
Трек 14 нет в базе данных
Ни одного трека нет в базе AccurateRip
Конец отчёта
[Profile]  [PM] 
Display posts:    
Reply to topic

Current time is: 28-Feb 11:56

All times are UTC + 2



You cannot post new topics in this forum
You cannot reply to topics in this forum
You cannot edit your posts in this forum
You cannot delete your posts in this forum
You cannot vote in polls in this forum
You cannot attach files in this forum
You cannot download files in this forum