(Pop/Retro) Юрий Антонов - Лунная дорожка (1993), FLAC (image+.cue), lossless

Reply to topic
 
Author
Message

STOJAK ®

Gender: Unknown

Longevity: 11 years

Posts: 21

Reputation: 0 [+] [-]

Location: Москва

STOJAK · Post 04-Feb-2010 14:48

[Quote] 

Юрий Антонов / Лунная дорожка
Жанр: Pop/Retro
Страна-производитель диска: Россия. Екатеринбург
Год издания: 1993
Издатель (лейбл): Jeff Records
Номер по каталогу: SS 93 024
Страна: Россия
Аудиокодек: FLAC (*.flac)
Тип рипа: image+.cue
Битрейт аудио: lossless
Продолжительность: 45:46
Источник (релизер): STOJAK
Наличие сканов в содержимом раздачи: да (PNG)
Треклист:
01. "Лунная дорожка (Ю. Антонов - С. Алиханов)"
02. "Не говорите мне «Прощай» (Ю. Антонов - М. Рябинин)"
03. "Вот и всё (Ю. Антонов - В. Сауткин)"
04. "Не гаснут костры (Ю. Антонов - О. Жуков)"
05. "Безумные роботы (Ю. Антонов - О. Жуков)"
06. "Страна чудес (Ю. Антонов - М. Рябинин)"
07. "Если... (Ю. Антонов - О. Виленкин)"
08. "Поправляйся, выздоравливай скорей (Ю. Антонов - С. Алиханов)"
09. "Переулочки Арбата (Ю. Антонов - О. Виленкин)"
10. "Бег вокруг (Ю. Антонов - Ю. Антонов)"

Отчёт EAC об извлечении, выполненном 13. января 2012, 7:53

Exact Audio Copy V1.0 beta 2 from 29. April 2011
Отчёт EAC об извлечении, выполненном 13. января 2012, 7:53
Юрий Антонов / Лунная дорожка
Дисковод: Optiarc DVD RW AD-7190A Adapter: 0 ID: 0
Режим чтения : Достоверность
Использование точного потока : Да
Отключение кэша аудио : Да
Использование указателей C2 : Нет
Коррекция смещения при чтении : 6
Способность читать области Lead-in и Lead-out : Нет
Заполнение пропущенных сэмплов тишиной : Да
Удаление блоков с тишиной в начале и конце : Нет
При вычислениях CRC использовались нулевые сэмплы : Да
Интерфейс : Встроенный Win32-интерфейс для Win NT/2000
Выходной формат : Внутренние WAV-операции
Формат сэмплов : 44.100 Гц; 16 бит; стерео
TOC извлечённого CD
Трек | Старт | Длительность | Начальный сектор | Конечный сектор
---------------------------------------------------------------------
1 | 0:00.00 | 5:07.27 | 0 | 23051
2 | 5:07.27 | 4:23.63 | 23052 | 42839
3 | 9:31.15 | 4:11.67 | 42840 | 61731
4 | 13:43.07 | 4:12.58 | 61732 | 80689
5 | 17:55.65 | 4:36.05 | 80690 | 101394
6 | 22:31.70 | 4:29.52 | 101395 | 121621
7 | 27:01.47 | 5:59.58 | 121622 | 148604
8 | 33:01.30 | 4:24.17 | 148605 | 168421
9 | 37:25.47 | 4:08.05 | 168422 | 187026
10 | 41:33.52 | 4:11.73 | 187027 | 205924
Характеристики диапазона извлечения и сообщения об ошибках
Выбранный диапазон
Имя файла E:\ОТЕЧЕСТВЕННАЯ RETRO - МУЗЫКА\АНТОНОВ ЮРИЙ © [Дискография]\АНТОНОВ ЮРИЙ (c) 1991-2012 [CD]\АНТОНОВ Юрий (c) 1993 [CD] (Лунная дорожка)\Юрий Антонов - Лунная дорожка.wav
Пиковый уровень 100.0 %
Скорость извлечения 3.7 X
Качество диапазона 99.9 %
CRC теста D5F9E867
CRC копии D5F9E867
Копирование... OK
Ошибок не произошло
AccurateRip: сводка
Трек 1 : извлечено точно (доверие 2) [325A8B24] (AR v1)
Трек 2 : извлечено точно (доверие 2) [02C6D584] (AR v1)
Трек 3 : извлечено точно (доверие 2) [EC536E05] (AR v1)
Трек 4 : извлечено точно (доверие 2) [57A69A8F] (AR v1)
Трек 5 : извлечено точно (доверие 2) [3E6028D4] (AR v1)
Трек 6 : извлечено точно (доверие 2) [9EDEC4DE] (AR v1)
Трек 7 : извлечено точно (доверие 2) [EDD7971D] (AR v1)
Трек 8 : извлечено точно (доверие 2) [850EE37F] (AR v1)
Трек 9 : извлечено точно (доверие 2) [07DD9422] (AR v1)
Трек 10 : извлечено точно (доверие 2) [14B1E441] (AR v1)
Все треки извлечены точно
Конец отчёта
==== Контрольная сумма отчёта 818554D4BD00F28C26DF0D52A4A52467A015034BBAB75C6BDA339AFE53F04533 ====

Содержание индексной карты (.CUE)

REM GENRE Pop/Retro
REM DATE 1993
REM DISCID 8B0AB90A
REM COMMENT "ExactAudioCopy v1.0b2"
PERFORMER "Юрий Антонов"
TITLE "Лунная дорожка"
FILE "Юрий Антонов - Лунная дорожка.flac" WAVE
TRACK 01 AUDIO
TITLE "Лунная дорожка (Ю. Антонов - С. Алиханов)"
PERFORMER "Юрий Антонов"
INDEX 01 00:00:00
TRACK 02 AUDIO
TITLE "Не говорите мне «Прощай» (Ю. Антонов - М. Рябинин)"
PERFORMER "Юрий Антонов"
INDEX 00 05:07:25
INDEX 01 05:07:27
TRACK 03 AUDIO
TITLE "Вот и всё (Ю. Антонов - В. Сауткин)"
PERFORMER "Юрий Антонов"
INDEX 00 09:31:12
INDEX 01 09:31:15
TRACK 04 AUDIO
TITLE "Не гаснут костры (Ю. Антонов - О. Жуков)"
PERFORMER "Юрий Антонов"
INDEX 00 13:43:05
INDEX 01 13:43:07
TRACK 05 AUDIO
TITLE "Безумные роботы (Ю. Антонов - О. Жуков)"
PERFORMER "Юрий Антонов"
INDEX 00 17:55:62
INDEX 01 17:55:65
TRACK 06 AUDIO
TITLE "Страна чудес (Ю. Антонов - М. Рябинин)"
PERFORMER "Юрий Антонов"
INDEX 00 22:31:68
INDEX 01 22:31:70
TRACK 07 AUDIO
TITLE "Если... (Ю. Антонов - О. Виленкин)"
PERFORMER "Юрий Антонов"
INDEX 00 27:01:45
INDEX 01 27:01:47
TRACK 08 AUDIO
TITLE "Поправляйся, выздоравливай скорей (Ю. Антонов - С. Алиханов)"
PERFORMER "Юрий Антонов"
INDEX 00 33:01:27
INDEX 01 33:01:30
TRACK 09 AUDIO
TITLE "Переулочки Арбата (Ю. Антонов - О. Виленкин)"
PERFORMER "Юрий Антонов"
INDEX 00 37:25:45
INDEX 01 37:25:47
TRACK 10 AUDIO
TITLE "Бег вокруг (Ю. Антонов - Ю. Антонов)"
PERFORMER "Юрий Антонов"
INDEX 00 41:33:50
INDEX 01 41:33:52

Лог проверки качества

AUDIOCHECKER v2.0 beta (build 457) - by Dester - opdester@freemail.hu
~~~~~~~~~~~~~~~~~~~~~~~~~~~~~~~~~~
-=== DO NOT EDIT THIS FILE! ===-
Path: ...\АНТОНОВ Юрий (c) 1993 [CD] (Лунная дорожка)
1 -=- Юрий Антонов - Лунная дорожка.wav -=- CDDA (100%)
67144468

COVERS

Раздача посвящается юбилею (20 лет) !!!! выхода альбома....
[Profile]  [PM] 
Display posts:    
Reply to topic

Current time is: 25-Feb 15:51

All times are UTC + 2



You cannot post new topics in this forum
You cannot reply to topics in this forum
You cannot edit your posts in this forum
You cannot delete your posts in this forum
You cannot vote in polls in this forum
You cannot attach files in this forum
You cannot download files in this forum