(Pop) Юрий Антонов - Несет меня течение (1993), FLAC (image+.cue) lossless

Reply to topic
 
Author
Message

STOJAK ®

Gender: Unknown

Longevity: 11 years

Posts: 21

Reputation: 0 [+] [-]

Location: Москва

STOJAK · Post 04-Feb-2010 14:57

[Quote] 

Юрий Антонов - Несёт меня течение
Жанр: Pop
Год выпуска диска: 1993
Производитель диска: Россия - Jeff Records
Аудиокодек: FLAC
Тип рипа: image + cue
Битрейт аудио: lossless
Продолжительность: 00:48:55
Источник: собственный рип.
Наличие сканов в содержимом раздачи: да

Трэклист:

01. От печали до радости
02. Несёт меня течение
03. Всё, как прежде
04. У берёз и сосен
05. Золотая лестница
06. Долгожданный самолет
07. На улице Каштановой
08. На высоком берегу
09. Каникулы
10. Давай не будем спешить
11. Хмельная сирень
12. С чего бы?

Доп. информация:
Продюсер: Ю.Антонов
Звукорежиссер: Ю.Антонов
Записано в студии Ю.Антонова "13-А". Запись 1992-93 гг.

Лог создания рипа

Exact Audio Copy V0.99 prebeta 5 from 4. May 2009
Отчёт EAC об извлечении, выполненном 27. ноября 2010, 22:40
Юрий Антонов / Несет меня течение
Дисковод: MATSHITADVD-RAM UJ-850S Adapter: 2 ID: 0
Режим чтения : Достоверность
Использование точного потока : Да
Отключение кэша аудио : Да
Использование указателей C2 : Нет
Коррекция смещения при чтении : 102
Способность читать области Lead-in и Lead-out : Нет
Заполнение пропущенных сэмплов тишиной : Да
Удаление блоков с тишиной в начале и конце : Нет
При вычислениях CRC использовались нулевые сэмплы : Нет
Интерфейс : Установленный внешний ASPI-интерфейс
Выходной формат : Внутренние WAV-операции
Формат сэмплов : 44.100 Гц; 16 бит; стерео
TOC извлечённого CD
Трек | Старт | Длительность | Начальный сектор | Конечный сектор
---------------------------------------------------------------------
1 | 0:00.62 | 4:15.73 | 62 | 19259
2 | 4:16.60 | 4:30.67 | 19260 | 39576
3 | 8:47.52 | 3:26.10 | 39577 | 55036
4 | 12:13.62 | 4:00.53 | 55037 | 73089
5 | 16:14.40 | 3:22.40 | 73090 | 88279
6 | 19:37.05 | 5:03.22 | 88280 | 111026
7 | 24:40.27 | 4:15.50 | 111027 | 130201
8 | 28:56.02 | 3:37.00 | 130202 | 146476
9 | 32:33.02 | 4:13.73 | 146477 | 165524
10 | 36:47.00 | 3:45.32 | 165525 | 182431
11 | 40:32.32 | 3:44.58 | 182432 | 199289
12 | 44:17.15 | 4:37.72 | 199290 | 220136
Характеристики диапазона извлечения и сообщения об ошибках
Выбранный диапазон
Имя файла D:\Мои раздачи\Юрий Антонов - Несет меня течение.wav
Пиковый уровень 82.6 %
Качество диапазона 99.9 %
CRC копии AF1C59E6
Копирование... OK
Ошибок не произошло
Конец отчёта

Лог проверки качества

AUDIOCHECKER v2.0 beta (build 457) - by Dester - opdester@freemail.hu
~~~~~~~~~~~~~~~~~~~~~~~~~~~~~~~~~~
-=== НЕ РЕДАКТИРУЙТЕ ЭТОТ ФАЙЛ! ===-
Путь: ...\Юрий Антонов - Несёт меня течение (1993)
1 -=- Юрий Антонов - Несет меня течение.flac -=- CDDA (100%)
72847396

АЧХ, спектр

Спектр файла FLAC.

Спектр и АЧХ разжатого файла WAV.
[Profile]  [PM] 
Display posts:    
Reply to topic

Current time is: 28-Feb 21:22

All times are UTC + 2



You cannot post new topics in this forum
You cannot reply to topics in this forum
You cannot edit your posts in this forum
You cannot delete your posts in this forum
You cannot vote in polls in this forum
You cannot attach files in this forum
You cannot download files in this forum