(Pop) Юрий Антонов - Музыка и песни из кинофильмов (1994), APE (image + .cue), lossless

Reply to topic
 
Author
Message

STOJAK ®

Gender: Unknown

Longevity: 11 years

Posts: 21

Reputation: 0 [+] [-]

Location: Москва

STOJAK · Post 04-Feb-2010 15:09

[Quote] 

Юрий Антонов - Музыка и песни из кинофильмов
Жанр: Pop
Год выпуска диска: 1994
Производитель диска: RDM Co. Ltd., Russia
Аудио кодек: APE
Тип рипа: image+.cue
Битрейт аудио: lossless
Продолжительность: 62:30
Трэклист:
01 О тебе и обо мне (К/ф "Прежде чем расстаться")
02 Хмельная сирень (К/ф "Хищники")
03 Тема справедливости (К/ф "Дураки умирают по пятницам")
04 Просто пойми (К/ф "Салон красоты")
05 Влюбленный чудак (К/ф "Хищники")
06 Тема справедливости (К/ф "Дураки умирают по пятницам")
07 Убийство / Погоня (К/ф "Дураки умирают по пятницам")
08 Патруль / Погоня (К/ф "Дураки умирают по пятницам")
09 Долгожданный самолет (К/ф "Прежде чем расстаться")
10 Не гаснут костры (К/ф "Приказ")
11 Любовь (К/ф "Дураки умирают по пятницам")
12 Печаль (К/ф "Хищники")
13 Снегири (К/ф "Незнакомая песня")
14 Тревога / Преследование (К/ф "Хищники")
15 Момент истины (К/ф "Хищники")
16 Берегите Женщин (К/ф "Берегите Женщин")
17 Море (К/ф "Берегите Женщин")
18 Финал (К/ф "Дураки умирают по пятницам")

EAC log

Exact Audio Copy V0.99 prebeta 4 from 23. January 2008
EAC extraction logfile from 5. August 2008, 21:21
Юрий Антонов / Музыка и песни из кинофильмов
Used drive : PIONEER DVD-RW DVR-212 Adapter: 0 ID: 0
Read mode : Secure
Utilize accurate stream : Yes
Defeat audio cache : Yes
Make use of C2 pointers : No
Read offset correction : 48
Overread into Lead-In and Lead-Out : No
Fill up missing offset samples with silence : Yes
Delete leading and trailing silent blocks : No
Null samples used in CRC calculations : Yes
Used interface : Native Win32 interface for Win NT & 2000
Used output format : Internal WAV Routines
Sample format : 44.100 Hz; 16 Bit; Stereo
TOC of the extracted CD
Track | Start | Length | Start sector | End sector
---------------------------------------------------------
1 | 0:00.00 | 3:36.23 | 0 | 16222
2 | 3:36.23 | 3:47.48 | 16223 | 33295
3 | 7:23.71 | 2:15.23 | 33296 | 43443
4 | 9:39.19 | 3:22.23 | 43444 | 58616
5 | 13:01.42 | 4:08.10 | 58617 | 77226
6 | 17:09.52 | 1:15.36 | 77227 | 82887
7 | 18:25.13 | 4:13.73 | 82888 | 101935
8 | 22:39.11 | 3:03.73 | 101936 | 115733
9 | 25:43.09 | 5:07.23 | 115734 | 138781
10 | 30:50.32 | 4:17.48 | 138782 | 158104
11 | 35:08.05 | 2:28.73 | 158105 | 169277
12 | 37:37.03 | 3:56.73 | 169278 | 187050
13 | 41:34.01 | 2:41.48 | 187051 | 199173
14 | 44:15.49 | 4:07.23 | 199174 | 217721
15 | 48:22.72 | 3:22.73 | 217722 | 232944
16 | 51:45.70 | 4:38.23 | 232945 | 253817
17 | 56:24.18 | 2:46.73 | 253818 | 266340
18 | 59:11.16 | 3:18.73 | 266341 | 281263
Range status and errors
Selected range
Filename D:\Lossless\Юрий Антонов - Музыка и песни из кинофильмов\Юрий Антонов - Музыка и песни из кинофильмов.wav
Peak level 86.3 %
Range quality 100.0 %
Test CRC 7716CF1B
Copy CRC 7716CF1B
Copy OK
No errors occurred
End of status report
[Profile]  [PM] 
Display posts:    
Reply to topic

Current time is: 28-Feb 20:38

All times are UTC + 2



You cannot post new topics in this forum
You cannot reply to topics in this forum
You cannot edit your posts in this forum
You cannot delete your posts in this forum
You cannot vote in polls in this forum
You cannot attach files in this forum
You cannot download files in this forum