(Pop/Retro) Юрий Антонов - Песни для детей (1996), FLAC (image+.cue), lossless

Reply to topic
 
Author
Message

STOJAK ®

Gender: Unknown

Longevity: 11 years

Posts: 21

Reputation: 0 [+] [-]

Location: Москва

STOJAK · Post 04-Feb-2010 15:28

[Quote] 

Юрий Антонов / Песни для детей
Жанр: Pop/Retro
Страна-производитель диска: Швеция
Год издания: 1996
Издатель (лейбл): Союз
Номер по каталогу: ZRCD 022
Страна: Россия
Аудиокодек: FLAC (*.flac)
Тип рипа: image+.cue
Битрейт аудио: lossless
Продолжительность: 58:36
Источник (релизер): STOJAK
Наличие сканов в содержимом раздачи: да (PNG)
Треклист:
01. "Не рвите цветы (Ю. Антонов - М. Пляцковский)" "Юрий Антонов"
02. "Летающая тарелка (Ю. Антонов - М. Пляцковский)" "Юрий Антонов"
03. "Туами (Ю. Антонов - М. Пляцковский)" "Ольга Зарубина"
04. "Песенка Кока (Ю. Антонов - М. Пляцковский)" "Юрий Антонов"
05. "Пусть вечным будет мир (Ю. Антонов - М. Пляцковский)" "Юрий Антонов и ДЕТСКИЙ ХОР"
06. "Крыша дома твоего (Ю. Антонов - М. Пляцковский)" "Юрий Антонов"
07. "Утренняя песенка (Ю. Антонов - М. Пляцковский)" "ДЕТСКИЙ ХОР"
08. "Воробьиная дискотека (Ю. Антонов - М. Пляцковский" "Юрий Антонов и ДЕТСКИЙ ХОР"
09. "Песенка пиратов (Ю. Антонов - М. Пляцковский)" "Мужской хор"
10. "Жар - Африка (Ю. Антонов - М. Пляцковский)" "ДЕТСКИЙ ХОР"
11. "Песенка Академиков (Ю. Антонов - М. Пляцковский)" "МУЖСКОЙ ХОР"
12. "Родные места (Ю. Антонов - М. Пляцковский)" "Юрий Антонов"
13. "Две волшебные буквы (Ю. Антонов - М. Пляцковский)" "ДЕТСКИЙ ХОР"
14. "Песенка Окулярии (Ю. Антонов - М. Пляцковский)" "Юрий Антонов"
15. "Песенка Мурёнки (Ю. Антонов - М. Пляцковский)" "Владимир Винокур"
16. "Живёт повсюду красота (Ю. Антонов - М. Пляцковский)" "Юрий Антонов"
17. "Снегарктида (Ю. Антонов - М. Пляцковский)" "Юрий Антонов и ДЕТСКИЙ ХОР"
18. "Все танцуют рок (Ю. Антонов - М. Пляцковский)" "Юрий Антонов"
19. "Песенка комьютера (Ю. Антонов - М. Пляцковский)" "Юрий Антонов"
20. "Говорят (Ю. Антонов - М. Пляцковский)" "Юрий Антонов и ДЕТСКИЙ ХОР"

Отчёт EAC об извлечении, выполненном 12. января 2012, 20:30

Exact Audio Copy V1.0 beta 2 from 29. April 2011
Отчёт EAC об извлечении, выполненном 12. января 2012, 20:30
Юрий Антонов / Песни для детей
Дисковод: Optiarc DVD RW AD-7190A Adapter: 0 ID: 0
Режим чтения : Достоверность
Использование точного потока : Да
Отключение кэша аудио : Да
Использование указателей C2 : Нет
Коррекция смещения при чтении : 6
Способность читать области Lead-in и Lead-out : Нет
Заполнение пропущенных сэмплов тишиной : Да
Удаление блоков с тишиной в начале и конце : Нет
При вычислениях CRC использовались нулевые сэмплы : Да
Интерфейс : Встроенный Win32-интерфейс для Win NT/2000
Выходной формат : Внутренние WAV-операции
Формат сэмплов : 44.100 Гц; 16 бит; стерео
TOC извлечённого CD
Трек | Старт | Длительность | Начальный сектор | Конечный сектор
---------------------------------------------------------------------
1 | 0:00.10 | 3:48.17 | 10 | 17126
2 | 3:48.27 | 3:55.33 | 17127 | 34784
3 | 7:43.60 | 3:43.22 | 34785 | 51531
4 | 11:27.07 | 1:38.50 | 51532 | 58931
5 | 13:05.57 | 3:43.35 | 58932 | 75691
6 | 16:49.17 | 2:46.58 | 75692 | 88199
7 | 19:36.00 | 2:59.25 | 88200 | 101649
8 | 22:35.25 | 2:56.57 | 101650 | 114906
9 | 25:32.07 | 4:11.40 | 114907 | 133771
10 | 29:43.47 | 2:06.18 | 133772 | 143239
11 | 31:49.65 | 2:41.60 | 143240 | 155374
12 | 34:31.50 | 4:41.05 | 155375 | 176454
13 | 39:12.55 | 3:06.37 | 176455 | 190441
14 | 42:19.17 | 2:07.45 | 190442 | 200011
15 | 44:26.62 | 1:58.73 | 200012 | 208934
16 | 46:25.60 | 2:41.37 | 208935 | 221046
17 | 49:07.22 | 1:01.40 | 221047 | 225661
18 | 50:08.62 | 3:06.68 | 225662 | 239679
19 | 53:15.55 | 1:53.02 | 239680 | 248156
20 | 55:08.57 | 3:27.00 | 248157 | 263681
Характеристики диапазона извлечения и сообщения об ошибках
Выбранный диапазон
Имя файла E:\ОТЕЧЕСТВЕННАЯ RETRO - МУЗЫКА\АНТОНОВ ЮРИЙ © [Дискография]\АНТОНОВ ЮРИЙ (c) 1993-2012 [CD]\АНТОНОВ Юрий (c) 1996 [CD] (Песни для детей)\Юрий Антонов - Песни для детей.wav
Пиковый уровень 96.6 %
Скорость извлечения 3.7 X
Качество диапазона 100.0 %
CRC теста B6CC2C09
CRC копии B6CC2C09
Копирование... OK
Ошибок не произошло
AccurateRip: сводка
Трек 1 : извлечено точно (доверие 2) [D21F5072] (AR v1)
Трек 2 : извлечено точно (доверие 2) [EDEE7C75] (AR v1)
Трек 3 : извлечено точно (доверие 2) [4CDBA50C] (AR v1)
Трек 4 : извлечено точно (доверие 2) [53A06BA4] (AR v1)
Трек 5 : извлечено точно (доверие 2) [45BD79AF] (AR v1)
Трек 6 : извлечено точно (доверие 2) [C3FE6CA0] (AR v1)
Трек 7 : извлечено точно (доверие 2) [6352400C] (AR v1)
Трек 8 : извлечено точно (доверие 2) [49724AEE] (AR v1)
Трек 9 : извлечено точно (доверие 2) [D93AE3DD] (AR v1)
Трек 10 : извлечено точно (доверие 2) [37637D4A] (AR v1)
Трек 11 : извлечено точно (доверие 2) [66524A53] (AR v1)
Трек 12 : извлечено точно (доверие 2) [464BE56C] (AR v1)
Трек 13 : извлечено точно (доверие 2) [70F03FA1] (AR v1)
Трек 14 : извлечено точно (доверие 2) [0308CEDB] (AR v1)
Трек 15 : извлечено точно (доверие 2) [B6570DBB] (AR v1)
Трек 16 : извлечено точно (доверие 2) [15330A5E] (AR v1)
Трек 17 : извлечено точно (доверие 2) [7138C71F] (AR v1)
Трек 18 : извлечено точно (доверие 2) [029CDC8A] (AR v1)
Трек 19 : извлечено точно (доверие 2) [E52EA5C2] (AR v1)
Трек 20 : извлечено точно (доверие 2) [DC8F243B] (AR v1)
Все треки извлечены точно
Конец отчёта
==== Контрольная сумма отчёта DD5C92A97BDE94C8C8609C79879B4E388A6F95E7EB352EF75A1965D0EB03A1B9 ====

Содержание индексной карты (.CUE)

REM GENRE Retro/Pop
REM DATE 1996
REM DISCID 210DBB14
REM COMMENT "ExactAudioCopy v1.0b2"
PERFORMER "Various Artists [Песни Юрия Антонова на стихи Михаила Пляцковского]"
TITLE "Песни для детей"
FILE "Юрий Антонов - Песни для детей.flac" WAVE
TRACK 01 AUDIO
TITLE "Не рвите цветы (Ю. Антонов - М. Пляцковский)"
PERFORMER "Юрий Антонов"
INDEX 00 00:00:00
INDEX 01 00:00:10
TRACK 02 AUDIO
TITLE "Летающая тарелка (Ю. Антонов - М. Пляцковский)"
PERFORMER "Юрий Антонов"
INDEX 00 03:45:47
INDEX 01 03:48:27
TRACK 03 AUDIO
TITLE "Туами (Ю. Антонов - М. Пляцковский)"
PERFORMER "Ольга Зарубина"
INDEX 00 07:41:04
INDEX 01 07:43:60
TRACK 04 AUDIO
TITLE "Песенка Кока (Ю. Антонов - М. Пляцковский)"
PERFORMER "Юрий Антонов"
INDEX 00 11:24:27
INDEX 01 11:27:07
TRACK 05 AUDIO
TITLE "Пусть вечным будет мир (Ю. Антонов - М. Пляцковский)"
PERFORMER "Юрий Антонов и ДЕТСКИЙ ХОР"
INDEX 00 13:03:02
INDEX 01 13:05:57
TRACK 06 AUDIO
TITLE "Крыша дома твоего (Ю. Антонов - М. Пляцковский)"
PERFORMER "Юрий Антонов"
INDEX 00 16:46:37
INDEX 01 16:49:17
TRACK 07 AUDIO
TITLE "Утренняя песенка (Ю. Антонов - М. Пляцковский)"
PERFORMER "ДЕТСКИЙ ХОР"
INDEX 00 19:33:19
INDEX 01 19:36:00
TRACK 08 AUDIO
TITLE "Воробьиная дискотека (Ю. Антонов - М. Пляцковский"
PERFORMER "Юрий Антонов и ДЕТСКИЙ ХОР"
INDEX 00 22:32:44
INDEX 01 22:35:25
TRACK 09 AUDIO
TITLE "Песенка пиратов (Ю. Антонов - М. Пляцковский)"
PERFORMER "МУЖСКОЙ ХОР"
INDEX 00 25:29:27
INDEX 01 25:32:07
TRACK 10 AUDIO
TITLE "Жар-Африка (Ю. Антонов - М. Пляцковский)"
PERFORMER "ДЕТСКИЙ ХОР"
INDEX 00 29:40:67
INDEX 01 29:43:47
TRACK 11 AUDIO
TITLE "Песенка Академиков (Ю. Антонов - М. Пляцковский)"
PERFORMER "МУЖСКОЙ ХОР"
INDEX 00 31:47:09
INDEX 01 31:49:65
TRACK 12 AUDIO
TITLE "Родные места (Ю. Антонов - М. Пляцковский)"
PERFORMER "Юрий Антонов"
INDEX 00 34:28:69
INDEX 01 34:31:50
TRACK 13 AUDIO
TITLE "Две волшебные буквы (Ю. Антонов - М. Пляцковский)"
PERFORMER "ДЕТСКИЙ ХОР"
INDEX 00 39:09:74
INDEX 01 39:12:55
TRACK 14 AUDIO
TITLE "Песенка Окулярии (Ю. Антонов - М. Пляцковский)"
PERFORMER "Юрий Антонов"
INDEX 00 42:16:37
INDEX 01 42:19:17
TRACK 15 AUDIO
TITLE "Песенка Мурёнки (Ю. Антонов - М. Пляцковский)"
PERFORMER "Владимир Винокур"
INDEX 00 44:24:07
INDEX 01 44:26:62
TRACK 16 AUDIO
TITLE "Живёт повсюду красота (Ю. Антонов - М. Пляцковский)"
PERFORMER "Юрий Антонов"
INDEX 00 46:23:04
INDEX 01 46:25:60
TRACK 17 AUDIO
TITLE "Снегарктида (Ю. Антонов - М. Пляцковский)"
PERFORMER "Юрий Антонов и ДЕТСКИЙ ХОР"
INDEX 00 49:04:42
INDEX 01 49:07:22
TRACK 18 AUDIO
TITLE "Все танцуют рок (Ю. Антонов - М. Пляцковский)"
PERFORMER "Юрий Антонов"
INDEX 00 50:06:07
INDEX 01 50:08:62
TRACK 19 AUDIO
TITLE "Песенка комьютера (Ю. Антонов - М. Пляцковский)"
PERFORMER "Юрий Антонов"
INDEX 00 53:12:74
INDEX 01 53:15:55
TRACK 20 AUDIO
TITLE "Говорят (Ю. Антонов - М. Пляцковский)"
PERFORMER "Юрий Антонов и ДЕТСКИЙ ХОР"
INDEX 00 55:06:02
INDEX 01 55:08:57

Лог проверки качества

AUDIOCHECKER v2.0 beta (build 457) - by Dester - opdester@freemail.hu
~~~~~~~~~~~~~~~~~~~~~~~~~~~~~~~~~~
-=== DO NOT EDIT THIS FILE! ===-
Path: ...\АНТОНОВ Юрий (c) 1996 [CD] (Песни для детей)
1 -=- Юрий Антонов - Песни для детей.wav -=- CDDA (99%)
8277476

COVERS CD

[Profile]  [PM] 
Display posts:    
Reply to topic

Current time is: 28-Feb 21:03

All times are UTC + 2



You cannot post new topics in this forum
You cannot reply to topics in this forum
You cannot edit your posts in this forum
You cannot delete your posts in this forum
You cannot vote in polls in this forum
You cannot attach files in this forum
You cannot download files in this forum