(Pop) Чи-Ли / Чили — Дискография (4CD) — 2006–2008, APE (image+.cue), lossless

Reply to topic
 
Author
Message

mario-OS ®

Gender: Male

Longevity: 11 years

Posts: 575

Reputation: 31 [+] [-]

Location: ...из страны, где шлюха стоит всего лишь доллар, солнце всегда и везде (с)

mario-OS · Post 04-Feb-2010 19:54

[Quote] 

Чи-Ли- -Жанр: Pop
Год выпуска дисков: 2006-2008
Производитель дисков: Россия
Аудио кодек: APE
Тип рипа: image+.cue
Битрейт аудио: lossless
Продолжительность: указана отдельно для каждого диска
-Официальный сайт:Чи-Ли-Альбомы

2006 - преступление


Год выпуска: 2006
Продолжительность: 1.02.34
Треклист:
01-Лето
02-Преступление
03-Не ангелы
04-Новый год в постели
05-Дожди пройдут
06-Странная любовь
07-Быть или не быть
08-Созвездие кошки
09-Омут
10-Маки
11-Дорога в рай
12-Туда же и ты
13-Радиоволна.
14-Преступление (Chi-li remix)
15-Омут (Chi-li remix)
16-Лето
17-Новый год в постели

EAC LOG

Exact Audio Copy V0.99 prebeta 5 from 4. May 2009
EAC extraction logfile from 4. October 2009, 7:45
Чи-Ли / Преступление
Used drive : MAD DOG MD-16XDVD9A2 Adapter: 3 ID: 0
Read mode : Secure
Utilize accurate stream : Yes
Defeat audio cache : Yes
Make use of C2 pointers : No
Read offset correction : 48
Overread into Lead-In and Lead-Out : No
Fill up missing offset samples with silence : Yes
Delete leading and trailing silent blocks : No
Null samples used in CRC calculations : Yes
Used interface : Installed external ASPI interface
Used output format : Internal WAV Routines
Sample format : 44.100 Hz; 16 Bit; Stereo
TOC of the extracted CD
Track | Start | Length | Start sector | End sector
---------------------------------------------------------
1 | 0:00.00 | 3:52.69 | 0 | 17468
2 | 3:52.69 | 3:22.00 | 17469 | 32618
3 | 7:14.69 | 3:02.00 | 32619 | 46268
4 | 10:16.69 | 3:31.00 | 46269 | 62093
5 | 13:47.69 | 3:32.35 | 62094 | 78028
6 | 17:20.29 | 3:48.00 | 78029 | 95128
7 | 21:08.29 | 3:32.00 | 95129 | 111028
8 | 24:40.29 | 4:02.00 | 111029 | 129178
9 | 28:42.29 | 4:42.45 | 129179 | 150373
10 | 33:24.74 | 3:27.35 | 150374 | 165933
11 | 36:52.34 | 4:18.00 | 165934 | 185283
12 | 41:10.34 | 2:52.69 | 185284 | 198252
13 | 44:03.28 | 3:27.00 | 198253 | 213777
14 | 47:30.28 | 3:56.56 | 213778 | 231533
15 | 51:27.09 | 3:19.67 | 231534 | 246525
16 | 54:47.01 | 3:36.41 | 246526 | 262766
17 | 58:23.42 | 4:10.00 | 262767 | 281516
Range status and errors
Selected range
Filename E:\TORRENT\Чи-Ли\2006 - Преступление\Чи-Ли - Преступление.wav
Peak level 100.0 %
Range quality 99.9 %
Test CRC 468DBD73
Copy CRC 468DBD73
Copy OK
No errors occurred
AccurateRip summary
Track 1 accurately ripped (confidence 2) [921298B1]
Track 2 accurately ripped (confidence 2) [7A2B014D]
Track 3 accurately ripped (confidence 2) [150D14E4]
Track 4 accurately ripped (confidence 2) [20083ED3]
Track 5 accurately ripped (confidence 2) [C89AEFF3]
Track 6 accurately ripped (confidence 2) [29BA1B0E]
Track 7 accurately ripped (confidence 2) [FCAC6B5A]
Track 8 accurately ripped (confidence 2) [138CA2C9]
Track 9 accurately ripped (confidence 2) [17F536FE]
Track 10 accurately ripped (confidence 2) [E75A5162]
Track 11 accurately ripped (confidence 2) [386F5B2E]
Track 12 accurately ripped (confidence 2) [0BBE54B7]
Track 13 accurately ripped (confidence 2) [FF37600C]
Track 14 accurately ripped (confidence 2) [089A8EA5]
Track 15 accurately ripped (confidence 2) [927850BF]
Track 16 accurately ripped (confidence 2) [812E6024]
Track 17 accurately ripped (confidence 2) [190FF632]
All tracks accurately ripped
End of status report

2007 - Лето-Преступление


Год выпуска: 2007
Продолжительность: 0.59.28
Треклист:
01. Сердце [0:04:05.29]
02. Лето [0:03:57.56]
03. Радиоволна (Fresh&Magestic Remix) [0:03:29.14]
04. Новый год в постели (New Version) [0:03:31.60]
05. Преступление (Beat Stream Remix) [0:04:00.03]
06. Созвездие кошки (Fresh&Magestic Remix) [0:04:10.51]
07. Лето DJ Jeff [0:06:28.01]
08. Странная любовь [0:03:48.00]
09. Туда же и ты (Лебедев ТВ Remix) [0:04:56.23]
10. Сердце DJ Jeff [0:06:25.38]
11. Маки (Video Clip Version) [0:03:11.18]
12. Омут (La Track Remix) [0:05:05.14]
13. Преступление [0:03:23.10]
14. Туда же и ты (La Track Remix) [0:02:56.01]

EAC LOG

Exact Audio Copy V0.99 prebeta 5 from 4. May 2009
EAC extraction logfile from 4. October 2009, 6:43
Чи-Ли / Лето Преступление
Used drive : MAD DOG MD-16XDVD9A2 Adapter: 3 ID: 0
Read mode : Secure
Utilize accurate stream : Yes
Defeat audio cache : Yes
Make use of C2 pointers : No
Read offset correction : 48
Overread into Lead-In and Lead-Out : No
Fill up missing offset samples with silence : Yes
Delete leading and trailing silent blocks : No
Null samples used in CRC calculations : Yes
Used interface : Installed external ASPI interface
Used output format : Internal WAV Routines
Sample format : 44.100 Hz; 16 Bit; Stereo
TOC of the extracted CD
Track | Start | Length | Start sector | End sector
---------------------------------------------------------
1 | 0:00.00 | 4:05.29 | 0 | 18403
2 | 4:05.29 | 3:57.56 | 18404 | 36234
3 | 8:03.10 | 3:29.14 | 36235 | 51923
4 | 11:32.24 | 3:31.60 | 51924 | 67808
5 | 15:04.09 | 4:00.03 | 67809 | 85811
6 | 19:04.12 | 4:10.51 | 85812 | 104612
7 | 23:14.63 | 6:28.01 | 104613 | 133713
8 | 29:42.64 | 3:48.00 | 133714 | 150813
9 | 33:30.64 | 4:56.23 | 150814 | 173036
10 | 38:27.12 | 6:25.38 | 173037 | 201949
11 | 44:52.50 | 3:11.18 | 201950 | 216292
12 | 48:03.68 | 5:05.14 | 216293 | 239181
13 | 53:09.07 | 3:23.10 | 239182 | 254416
14 | 56:32.17 | 2:56.01 | 254417 | 267617
15 | 62:00.18 | 5:03.24 | 279018 | 301766
Range status and errors
Selected range
Filename E:\TORRENT\Чи-Ли\2007 - Лето Преступление\Чи-Ли - Лето Преступление.wav
Peak level 96.5 %
Range quality 99.8 %
Test CRC AC606B88
Copy CRC AC606B88
Copy OK
No errors occurred
AccurateRip summary
Track 1 accurately ripped (confidence 4) [173B5ED7]
Track 2 accurately ripped (confidence 4) [D0C380B7]
Track 3 accurately ripped (confidence 4) [13529D25]
Track 4 accurately ripped (confidence 4) [93E85270]
Track 5 accurately ripped (confidence 4) [B317440A]
Track 6 accurately ripped (confidence 4) [B842493A]
Track 7 accurately ripped (confidence 4) [7C31FFF1]
Track 8 accurately ripped (confidence 4) [A2C52109]
Track 9 accurately ripped (confidence 4) [D0FAAA02]
Track 10 accurately ripped (confidence 4) [166B3DF5]
Track 11 accurately ripped (confidence 4) [281D2E73]
Track 12 accurately ripped (confidence 4) [4A85991E]
Track 13 accurately ripped (confidence 4) [149333DA]
Track 14 accurately ripped (confidence 4) [CB65C21D]
All tracks accurately ripped
End of status report

CD-Extra (Клип "Сердце")

Качество: DVDRip
Формат: Divx Video
Видео кодек: DivX 5
Аудио кодек: MPEG1 layer 3
Видео: 720x576 1301kbps 25.00fps
Аудио: 44100Hz stereo 128Kbps (CBR)
Скриншоты

2008 - сделано в Чили


Год выпуска: 2008
Продолжительность: 0.49.34
Треклист:
01-Сердце
02-Сто один раз
03-Любовь - это яд
04-А может быть
05-Снегом замело
06-Сестра
07-Реки
08-Спасенья нет
09-Она
10-Старый лес
11-В синем море, в белой пене
12-А может быть
13-Любовь - это яд
14-Снегом замело
15-Любовь - это яд

EAC LOG

Exact Audio Copy V0.99 prebeta 5 from 4. May 2009
EAC extraction logfile from 4. October 2009, 10:56
Чи-Ли / Сделано в Чили
Used drive : MAD DOG MD-16XDVD9A2 Adapter: 3 ID: 0
Read mode : Secure
Utilize accurate stream : Yes
Defeat audio cache : Yes
Make use of C2 pointers : No
Read offset correction : 48
Overread into Lead-In and Lead-Out : No
Fill up missing offset samples with silence : Yes
Delete leading and trailing silent blocks : No
Null samples used in CRC calculations : Yes
Used interface : Installed external ASPI interface
Used output format : Internal WAV Routines
Sample format : 44.100 Hz; 16 Bit; Stereo
TOC of the extracted CD
Track | Start | Length | Start sector | End sector
---------------------------------------------------------
1 | 0:00.00 | 3:56.26 | 0 | 17725
2 | 3:56.26 | 3:30.58 | 17726 | 33533
3 | 7:27.09 | 3:48.13 | 33534 | 50646
4 | 11:15.22 | 3:47.32 | 50647 | 67703
5 | 15:02.54 | 3:22.39 | 67704 | 82892
6 | 18:25.18 | 3:35.27 | 82893 | 99044
7 | 22:00.45 | 2:53.09 | 99045 | 112028
8 | 24:53.54 | 3:38.10 | 112029 | 128388
9 | 28:31.64 | 3:42.55 | 128389 | 145093
10 | 32:14.44 | 3:35.43 | 145094 | 161261
11 | 35:50.12 | 2:55.64 | 161262 | 174450
12 | 38:46.01 | 3:49.45 | 174451 | 191670
13 | 42:35.46 | 3:33.74 | 191671 | 207719
14 | 46:09.45 | 3:24.56 | 207720 | 223075
Range status and errors
Selected range
Filename E:\TORRENT\Чи-Ли\2008 - Сделано в Чили\Чи-Ли - Сделано в Чили.wav
Peak level 96.7 %
Range quality 100.0 %
Test CRC FD35122E
Copy CRC FD35122E
Copy OK
No errors occurred
AccurateRip summary
Track 1 cannot be verified as accurate (confidence 1) [B55DE81F], AccurateRip returned [BA6B36E1]
Track 2 cannot be verified as accurate (confidence 1) [348378EE], AccurateRip returned [127B4D68]
Track 3 cannot be verified as accurate (confidence 1) [64FCE9FE], AccurateRip returned [99CDA646]
Track 4 cannot be verified as accurate (confidence 1) [B60C8773], AccurateRip returned [8C8150DA]
Track 5 cannot be verified as accurate (confidence 1) [850F4DB1], AccurateRip returned [AA0FD6AA]
Track 6 cannot be verified as accurate (confidence 1) [D6A160DA], AccurateRip returned [9D6C7322]
Track 7 cannot be verified as accurate (confidence 1) [650A2AE2], AccurateRip returned [50ECAC87]
Track 8 cannot be verified as accurate (confidence 1) [69787D57], AccurateRip returned [88074640]
Track 9 cannot be verified as accurate (confidence 1) [2A117979], AccurateRip returned [5A682BB7]
Track 10 cannot be verified as accurate (confidence 1) [5A4B14C3], AccurateRip returned [49C0C79B]
Track 11 cannot be verified as accurate (confidence 1) [0502D524], AccurateRip returned [3C142C07]
Track 12 cannot be verified as accurate (confidence 1) [7B244F08], AccurateRip returned [2CDF8220]
Track 13 cannot be verified as accurate (confidence 1) [8CBB52E8], AccurateRip returned [C454BA88]
Track 14 cannot be verified as accurate (confidence 1) [75894EEB], AccurateRip returned [81CD7667]
No tracks could be verified as accurate
You may have a different pressing from the one(s) in the database
End of status report

2008 - Сделано в Чили (Deluxe Edition)


Год выпуска: 2008
Продолжительность: 0.54.16
Треклист:
01. Любовь — это яд [0:03:56.26]
02. Сто один раз [0:03:30.58]
03. Сердце [0:03:48.13]
04. А может быть (Light Ver.) [0:03:47.32]
05. Снегом замело [0:03:22.39]
06. Сестра [0:03:35.27]
07. Реки [0:02:53.09]
08. Спасенья нет [0:03:38.10]
09. Она [0:03:42.55]
10. Старый лес [0:03:35.43]
11. В синем море, в белой пене [0:02:55.64]
12. А может быть [0:03:49.45]
13. Любовь — это яд (Fresh&Majestic Electro Remix) [0:03:33.74]
14. Снегом замело (Sergey Karpov Beatbox Remix) [0:03:24.56]
15. Любовь — это яд (Sergei Karpov Remix) - Bonus [0:04:37.38]

EAC LOG

Exact Audio Copy V0.99 prebeta 5 from 4. May 2009
EAC extraction logfile from 16. December 2009, 19:04
Чи-Ли / Сделано в Чили (Deluxe Edition)
Used drive : MAD DOG MD-16XDVD9A2 Adapter: 3 ID: 0
Read mode : Secure
Utilize accurate stream : Yes
Defeat audio cache : Yes
Make use of C2 pointers : No
Read offset correction : 48
Overread into Lead-In and Lead-Out : No
Fill up missing offset samples with silence : Yes
Delete leading and trailing silent blocks : No
Null samples used in CRC calculations : Yes
Used interface : Installed external ASPI interface
Used output format : Internal WAV Routines
Sample format : 44.100 Hz; 16 Bit; Stereo
TOC of the extracted CD
Track | Start | Length | Start sector | End sector
---------------------------------------------------------
1 | 0:00.00 | 3:56.26 | 0 | 17725
2 | 3:56.26 | 3:30.58 | 17726 | 33533
3 | 7:27.09 | 3:48.13 | 33534 | 50646
4 | 11:15.22 | 3:47.32 | 50647 | 67703
5 | 15:02.54 | 3:22.39 | 67704 | 82892
6 | 18:25.18 | 3:35.27 | 82893 | 99044
7 | 22:00.45 | 2:53.09 | 99045 | 112028
8 | 24:53.54 | 3:38.10 | 112029 | 128388
9 | 28:31.64 | 3:42.55 | 128389 | 145093
10 | 32:14.44 | 3:35.43 | 145094 | 161261
11 | 35:50.12 | 2:55.64 | 161262 | 174450
12 | 38:46.01 | 3:49.45 | 174451 | 191670
13 | 42:35.46 | 3:33.74 | 191671 | 207719
14 | 46:09.45 | 3:26.38 | 207720 | 223207
15 | 49:36.08 | 4:37.38 | 223208 | 244020
16 | 56:45.46 | 7:58.17 | 255421 | 291287
Range status and errors
Selected range
Filename E:\TORRENT\Чи-Ли\2008 - Сделано в Чили (Deluxe Edition)\Чи-Ли - Сделано в Чили (Deluxe Edition).wav
Peak level 96.6 %
Range quality 100.0 %
Test CRC 244A2184
Copy CRC 244A2184
Copy OK
No errors occurred
AccurateRip summary
Track 1 accurately ripped (confidence 1) [7A226712]
Track 2 accurately ripped (confidence 1) [B34B5930]
Track 3 accurately ripped (confidence 1) [B5533509]
Track 4 accurately ripped (confidence 1) [08C5B5E6]
Track 5 accurately ripped (confidence 1) [BA8A5391]
Track 6 accurately ripped (confidence 1) [D01C5456]
Track 7 accurately ripped (confidence 1) [C90F308B]
Track 8 accurately ripped (confidence 1) [7D8A87AF]
Track 9 accurately ripped (confidence 1) [619E4871]
Track 10 accurately ripped (confidence 1) [AA59A27F]
Track 11 accurately ripped (confidence 1) [8C2DF4E6]
Track 12 accurately ripped (confidence 1) [BC82F2FA]
Track 13 accurately ripped (confidence 1) [B6DC8779]
Track 14 accurately ripped (confidence 1) [724BB5F2]
Track 15 accurately ripped (confidence 1) [CA94BF32]
All tracks accurately ripped
End of status report
-Доп. информация:«Чи-Ли» — российская музыкальная группа, основанная в 2005 году, когда был выпущен первый промо-сингл «Преступление».
В одном интервью, солистка группы Ирина Забияка рассказала, что официальным днем рождения коллектива они считают 18 сентября 2006 года — день презентации дебютного альбома «Преступление» в клубе «Офис».
До этого группа уже успела выступить на сцене, в частности 10 июня 2006 года в клубе «Ленинград».[1]
Прозвище «Чи-Ли» солистка группы Ирина Забияка, по её словам, получила в детстве, когда мать рассказала дочери историю об исчезнувшем отце, чилийском революционере.
Собрана полная дискография группы "Чили"
--
"Mario-os" release style ®
[Profile]  [PM] 
Display posts:    
Reply to topic

Current time is: 28-Feb 20:16

All times are UTC + 2



You cannot post new topics in this forum
You cannot reply to topics in this forum
You cannot edit your posts in this forum
You cannot delete your posts in this forum
You cannot vote in polls in this forum
You cannot attach files in this forum
You cannot download files in this forum