(Pop) Александр Маршал - Ливень [CD] - 2000, APE (image + .cue), lossless

Reply to topic
 
Author
Message

STOJAK ®

Gender: Unknown

Longevity: 11 years

Posts: 21

Reputation: 0 [+] [-]

Location: Москва

STOJAK · Post 05-Feb-2010 18:57

[Quote] 

Александр Маршал - Ливень [CD]
Страна: Россия
Жанр: Pop
Год выпуска: 2000
Формат: APE (image + .cue)
Битрейт аудио: lossless
Продолжительность: 45:08
Трэклист:
01. "Рота (В.Клименков - В.Клименков)"
02. "Ливень (П.Есенин - С.Патрушев)"
03. "Орёл (А.Миньков - А.Миньков)"
04. "Погоди,постой (А.Миньков - А.Миньков) "
05. "Улетаю вновь (П.Есенин - С.Патрушев)"
06. "Может быть (А.Миньков ,Н.Кузьминых - С.Трофимов)"
07. "С днём рождения (А.Миньков - А.Миньков)"
08. "Кленовый лист (М.Шелег - М.Шелег)"
09. "Снегопад (А.Миньков - А.Миньков)"
10. "Дорога (А.Миньков - А.Рыбаков)"
11. "На перекрестке (И.Каменская - А.Свиридов)"

Отчёт EAC об извлечении, выполненном 5. февраля 2010, 19:29
:
Exact Audio Copy V0.99 prebeta 3 from 28. July 2007
Отчёт EAC об извлечении, выполненном 5. февраля 2010, 19:29
Александр Маршал / "ЛИВЕНЬ"
Дисковод: Optiarc DVD RW AD-7190A Adapter: 0 ID: 0
Режим чтения : Достоверность
Использование точного потока : Да
Отключение кэша аудио : Да
Использование указателей C2 : Нет
Коррекция смещения при чтении : 6
Способность читать области Lead-in и Lead-out : Нет
Заполнение пропущенных сэмплов тишиной : Да
Удаление блоков с тишиной в начале и конце : Нет
При вычислениях CRC использовались нулевые сэмплы : Да
Интерфейс : Встроенный Win32-интерфейс для Win NT/2000
Выходной формат : Внутренние WAV-операции
Формат сэмплов : 44.100 Гц; 16 бит; стерео
TOC извлечённого CD
Трек | Старт | Длительность | Начальный сектор | Конечный сектор
---------------------------------------------------------------------
1 | 0:00.00 | 4:16.60 | 0 | 19259
2 | 4:16.60 | 3:54.00 | 19260 | 36809
3 | 8:10.60 | 4:31.39 | 36810 | 57173
4 | 12:42.24 | 3:29.59 | 57174 | 72907
5 | 16:12.08 | 3:29.18 | 72908 | 88600
6 | 19:41.26 | 4:26.56 | 88601 | 108606
7 | 24:08.07 | 3:51.08 | 108607 | 125939
8 | 27:59.15 | 4:22.74 | 125940 | 145663
9 | 32:22.14 | 4:20.13 | 145664 | 165176
10 | 36:42.27 | 3:55.68 | 165177 | 182869
11 | 40:38.20 | 4:29.44 | 182870 | 203088
Характеристики диапазона извлечения и сообщения об ошибках
Выбранный диапазон
Имя файла E:\POP,ROCK [RUS]\МАРШАЛ АЛЕКСАНДР © [Дискография]\2000 Ливень\Александр Маршал - ЛИВЕНЬ.wav
Пиковый уровень 100.0 %
Качество диапазона 100.0 %
CRC теста 2E9E20B2
CRC копии 2E9E20B2
Копирование... OK
Ошибок не произошло
AccurateRip: сводка
Трек 1 нет в базе данных
Трек 2 нет в базе данных
Трек 3 нет в базе данных
Трек 4 нет в базе данных
Трек 5 нет в базе данных
Трек 6 нет в базе данных
Трек 7 нет в базе данных
Трек 8 нет в базе данных
Трек 9 нет в базе данных
Трек 10 нет в базе данных
Трек 11 нет в базе данных
Ни одного трека нет в базе AccurateRip
Конец отчёта
[Profile]  [PM] 

karpov369

Gender: Unknown

Longevity: 10 years

Posts: 1

Reputation: 0 [+] [-]

karpov369 · Post 27-May-2010 11:15 (after 3 months 21 day)

[Quote] 

Где сид?
[Profile]  [PM] 
Display posts:    
Reply to topic

Current time is: 28-Feb 20:10

All times are UTC + 2



You cannot post new topics in this forum
You cannot reply to topics in this forum
You cannot edit your posts in this forum
You cannot delete your posts in this forum
You cannot vote in polls in this forum
You cannot attach files in this forum
You cannot download files in this forum