(Pop) Юрий Антонов - От Печали До Радости (2CD) (1995), WAVPack (image+.cue), lossless

Reply to topic
 
Author
Message

STOJAK ®

Gender: Unknown

Longevity: 11 years

Posts: 21

Reputation: 0 [+] [-]

Location: Москва

STOJAK · Post 07-Feb-2010 15:33

[Quote] 

Юрий Антонов - От Печали До Радости (2CD)
Жанр: Pop
Год выпуска диска: 1995
Производитель диска: Россия
Аудио кодек: WAVPack
Тип рипа: image+.cue
Битрейт аудио: lossless
Продолжительность: 1:19:54 + 1:19:56
Трэклист:
Юрий Антонов - От Печали До Радости Диск 1
01. Зеркало [0:03:35.67]
02. Не забывай [0:03:50.25]
03. Двадцать лет спустя [0:03:35.66]
04. Вот так бывает [0:03:20.71]
05. Мое богатство [0:02:33.45]
06. Я иду тебе навстречу [0:03:46.12]
07. Снегири [0:02:34.18]
08. Крыша дома твоего [0:02:35.54]
09. Анастасия [0:02:53.08]
10. Тебе [0:04:05.61]
11. Белый теплоход [0:03:19.44]
12. А где-то... [0:03:55.01]
13. Море [0:02:40.25]
14. О тебе и обо мне [0:03:28.29]
15. Берегите женщин [0:04:31.41]
16. Не рвите цветы [0:03:45.28]
17. Лунная дорожка [0:05:04.21]
18. Не говорите мне прощай [0:02:26.70]
19. Вот и все [0:04:10.09]
20. Если... [0:05:55.56]
21. Я не жалею ни о чем [0:03:53.74]
22. Мой путь прост [0:03:51.17]
Общее время звучания = 1:19:54
Юрий Антонов - От Печали До Радости Диск 2
01. От печали до радости [0:04:09.65]
02. Несет меня течение [0:04:27.55]
03. Все, как прежде [0:03:25.33]
04. У берез и сосен [0:04:05.30]
05. Золотая лестница [0:03:22.32]
06. Долгожданный самолет [0:05:02.31]
07. На улице Каштановой [0:04:13.37]
08. На высоком берегу [0:03:36.74]
09. Каникулы [0:04:12.56]
10. Давай не будем спешить [0:03:43.57]
11. Хмельная сирень [0:03:42.06]
12. Родные места [0:04:39.42]
13. Жизнь [0:04:51.17]
14. Живет повсюду красота [0:02:38.56]
15. Я вспоминаю [0:05:47.29]
16. Дорога к морю [0:02:32.47]
17. Поверь в мечту [0:04:27.55]
18. Не до смеха [0:03:12.55]
19. Если пойдем вдвоем [0:03:01.17]
20. Дай мне руку [0:04:42.43]
Общее время звучания = 1:19:56

Отчёт EAC Диск1

Exact Audio Copy V0.99 prebeta 4 from 23. January 2008
Отчёт EAC об извлечении, выполненном 7. октября 2008, 3:06
Юрий Антонов / От печали до радости (1)
Дисковод: PLEXTOR CD-R PX-W5224A Adapter: 1 ID: 0
Режим чтения : Достоверность
Использование точного потока : Да
Отключение кэша аудио : Да
Использование указателей C2 : Нет
Коррекция смещения при чтении : 30
Способность читать области Lead-in и Lead-out : Нет
Заполнение пропущенных сэмплов тишиной : Да
Удаление блоков с тишиной в начале и конце : Нет
При вычислениях CRC использовались нулевые сэмплы : Нет
Интерфейс : Установленный внешний ASPI-интерфейс
Выходной формат : Внутренние WAV-операции
Формат сэмплов : 44.100 Гц; 16 бит; стерео
TOC извлечённого CD
Трек | Старт | Длительность | Начальный сектор | Конечный сектор
---------------------------------------------------------------------
1 | 0:00.00 | 3:35.67 | 0 | 16191
2 | 3:35.67 | 3:50.25 | 16192 | 33466
3 | 7:26.17 | 3:35.66 | 33467 | 49657
4 | 11:02.08 | 3:20.71 | 49658 | 64728
5 | 14:23.04 | 2:33.45 | 64729 | 76248
6 | 16:56.49 | 3:46.12 | 76249 | 93210
7 | 20:42.61 | 2:34.18 | 93211 | 104778
8 | 23:17.04 | 2:35.54 | 104779 | 116457
9 | 25:52.58 | 2:53.08 | 116458 | 129440
10 | 28:45.66 | 4:05.61 | 129441 | 147876
11 | 32:51.52 | 3:19.44 | 147877 | 162845
12 | 36:11.21 | 3:55.01 | 162846 | 180471
13 | 40:06.22 | 2:40.25 | 180472 | 192496
14 | 42:46.47 | 3:28.29 | 192497 | 208125
15 | 46:15.01 | 4:31.41 | 208126 | 228491
16 | 50:46.42 | 3:45.28 | 228492 | 245394
17 | 54:31.70 | 5:04.21 | 245395 | 268215
18 | 59:36.16 | 2:26.70 | 268216 | 279235
19 | 62:03.11 | 4:10.09 | 279236 | 297994
20 | 66:13.20 | 5:55.56 | 297995 | 324675
21 | 72:09.01 | 3:53.74 | 324676 | 342224
22 | 76:03.00 | 3:51.17 | 342225 | 359566
Характеристики диапазона извлечения и сообщения об ошибках
Выбранный диапазон
Имя файла G:\Audio_CD\Юрий Антонов От Печали До Радости\Диск1\Юрий Антонов - От печали до радости (1).wav
Пиковый уровень 100.0 %
Качество диапазона 100.0 %
CRC теста 305FC269
CRC копии 305FC269
Копирование... OK
Ошибок не произошло
AccurateRip: сводка
Трек 1 нет в базе данных
Трек 2 нет в базе данных
Трек 3 нет в базе данных
Трек 4 нет в базе данных
Трек 5 нет в базе данных
Трек 6 нет в базе данных
Трек 7 нет в базе данных
Трек 8 нет в базе данных
Трек 9 нет в базе данных
Трек 10 нет в базе данных
Трек 11 нет в базе данных
Трек 12 нет в базе данных
Трек 13 нет в базе данных
Трек 14 нет в базе данных
Трек 15 нет в базе данных
Трек 16 нет в базе данных
Трек 17 нет в базе данных
Трек 18 нет в базе данных
Трек 19 нет в базе данных
Трек 20 нет в базе данных
Трек 21 нет в базе данных
Трек 22 нет в базе данных
Ни одного трека нет в базе AccurateRip
Конец отчёта

Отчёт EAC Диск2

Exact Audio Copy V0.99 prebeta 4 from 23. January 2008
Отчёт EAC об извлечении, выполненном 7. октября 2008, 1:54
Unknown Artist / Unknown Title
Дисковод: PLEXTOR CD-R PX-W5224A Adapter: 1 ID: 0
Режим чтения : Достоверность
Использование точного потока : Да
Отключение кэша аудио : Да
Использование указателей C2 : Нет
Коррекция смещения при чтении : 30
Способность читать области Lead-in и Lead-out : Нет
Заполнение пропущенных сэмплов тишиной : Да
Удаление блоков с тишиной в начале и конце : Нет
При вычислениях CRC использовались нулевые сэмплы : Нет
Интерфейс : Установленный внешний ASPI-интерфейс
Выходной формат : Внутренние WAV-операции
Формат сэмплов : 44.100 Гц; 16 бит; стерео
TOC извлечённого CD
Трек | Старт | Длительность | Начальный сектор | Конечный сектор
---------------------------------------------------------------------
1 | 0:00.00 | 4:09.65 | 0 | 18739
2 | 4:09.65 | 4:27.55 | 18740 | 38819
3 | 8:37.45 | 3:25.33 | 38820 | 54227
4 | 12:03.03 | 4:05.30 | 54228 | 72632
5 | 16:08.33 | 3:22.32 | 72633 | 87814
6 | 19:30.65 | 5:02.31 | 87815 | 110495
7 | 24:33.21 | 4:13.37 | 110496 | 129507
8 | 28:46.58 | 3:36.74 | 129508 | 145781
9 | 32:23.57 | 4:12.56 | 145782 | 164737
10 | 36:36.38 | 3:43.57 | 164738 | 181519
11 | 40:20.20 | 3:42.06 | 181520 | 198175
12 | 44:02.26 | 4:39.42 | 198176 | 219142
13 | 48:41.68 | 4:51.17 | 219143 | 240984
14 | 53:33.10 | 2:38.56 | 240985 | 252890
15 | 56:11.66 | 5:47.29 | 252891 | 278944
16 | 61:59.20 | 2:32.47 | 278945 | 290391
17 | 64:31.67 | 4:27.55 | 290392 | 310471
18 | 68:59.47 | 3:12.55 | 310472 | 324926
19 | 72:12.27 | 3:01.17 | 324927 | 338518
20 | 75:13.44 | 4:42.43 | 338519 | 359711
Характеристики диапазона извлечения и сообщения об ошибках
Выбранный диапазон
Имя файла G:\Audio_CD\Юрий Антонов От Печали До Радости\Диск2\Unknown Artist - Unknown Title.wav
Пиковый уровень 100.0 %
Качество диапазона 99.8 %
CRC теста 6975A694
CRC копии 6975A694
Копирование... OK
Ошибок не произошло
AccurateRip: сводка
Трек 1 нет в базе данных
Трек 2 нет в базе данных
Трек 3 нет в базе данных
Трек 4 нет в базе данных
Трек 5 нет в базе данных
Трек 6 нет в базе данных
Трек 7 нет в базе данных
Трек 8 нет в базе данных
Трек 9 нет в базе данных
Трек 10 нет в базе данных
Трек 11 нет в базе данных
Трек 12 нет в базе данных
Трек 13 нет в базе данных
Трек 14 нет в базе данных
Трек 15 нет в базе данных
Трек 16 нет в базе данных
Трек 17 нет в базе данных
Трек 18 нет в базе данных
Трек 19 нет в базе данных
Трек 20 нет в базе данных
Ни одного трека нет в базе AccurateRip
Конец отчёта


Last edited by STOJAK on 2010-02-09 07:22; edited 2 times in total
[Profile]  [PM] 
Display posts:    
Reply to topic

Current time is: 25-Feb 16:03

All times are UTC + 2



You cannot post new topics in this forum
You cannot reply to topics in this forum
You cannot edit your posts in this forum
You cannot delete your posts in this forum
You cannot vote in polls in this forum
You cannot attach files in this forum
You cannot download files in this forum