(Pop) VA - Новые и любимые хиты 2013, FLAC (image+.cue) lossless

Reply to topic
 
Author
Message

88lena888 ®

Gender: Male

Longevity: 11 years

Posts: 63

Reputation: 0 [+] [-]

88lena888 · Post 19-Mar-2013 20:34

[Quote] 

Various Artists - Новые и любимые хиты (2013) Жанр:Pop
Страна-производитель диска: Украина
Год издания: 2013
Издатель (лейбл): MOON Records. Made in UA
Номер по каталогу:MR5523-2
Страна: Украина
Аудиокодек: FLAC (*.flac)
Тип рипа: image+.cue
Битрейт аудио: lossless
Продолжительность: 01:29:33
Источник (релизер):losslessclub

Треклист:

01. Ани Лорак - Зажигай сердце
02. Владимир Ткаченко - Сон не про нас
03. Dan Balan - Lonely
04. Горячий Шоколад - За тобой
05. Тимур Родригез - Я верю в твою любовь (Melloffon Remix)
06. Марина Орлова - Нам, наверно, не надо
07. Бумбокс, Pianoбой и ТНМК - Для тебя
08. Лавика - Коснёмся губами
09. Доминик Джокер - Прощай
10. Дилайс - Без тебя
11. NOMAD - Время не вернуть!
12. Эрика - Под снежным серебром
13. LiteRu - Мы умеем летать
14. Оля Полякова - Russian style
15. Дмитрий Климашенко - Верю свято
16. Тамерлан и Алёна Омаргалиева - Может это ты
17. Мария Литти - Сумасшедшая
18. Макс Барских - Я болею тобой
19. TARABAROVA - Вера
20. Лион feat. Иван Дорн - Москва слезам не верит
21. Spelova - Фак.Кел
22. Матиас - Мистерия
23. DJ Vini - Очи чёрные
24. Антон Лирник - Детство
25. Tori Joy - Honey

Log Exact Audio Copy

Exact Audio Copy V1.0 beta 3 from 29. August 2011
EAC extraction logfile from 1. March 2013, 18:52
Various Artists / Новые и любимые хиты 2013
Used drive : Optiarc DVD RW AD-5280S Adapter: 0 ID: 2
Read mode : Secure
Utilize accurate stream : Yes
Defeat audio cache : Yes
Make use of C2 pointers : No
Read offset correction : 48
Overread into Lead-In and Lead-Out : No
Fill up missing offset samples with silence : Yes
Delete leading and trailing silent blocks : No
Null samples used in CRC calculations : Yes
Used interface : Installed external ASPI interface
Used output format : Internal WAV Routines
Sample format : 44.100 Hz; 16 Bit; Stereo
TOC of the extracted CD
Track | Start | Length | Start sector | End sector
---------------------------------------------------------
1 | 0:00.00 | 3:32.01 | 0 | 15900
2 | 3:32.01 | 3:31.14 | 15901 | 31739
3 | 7:03.15 | 3:10.22 | 31740 | 46011
4 | 10:13.37 | 3:25.71 | 46012 | 61457
5 | 13:39.33 | 4:36.71 | 61458 | 82228
6 | 18:16.29 | 3:09.71 | 82229 | 96474
7 | 21:26.25 | 4:30.33 | 96475 | 116757
8 | 25:56.58 | 3:37.04 | 116758 | 133036
9 | 29:33.62 | 3:28.26 | 133037 | 148662
10 | 33:02.13 | 3:42.30 | 148663 | 165342
11 | 36:44.43 | 3:50.44 | 165343 | 182636
12 | 40:35.12 | 3:37.53 | 182637 | 198964
13 | 44:12.65 | 3:46.00 | 198965 | 215914
14 | 47:58.65 | 3:11.51 | 215915 | 230290
15 | 51:10.41 | 3:32.32 | 230291 | 246222
16 | 54:42.73 | 2:56.05 | 246223 | 259427
17 | 57:39.03 | 3:24.03 | 259428 | 274730
18 | 61:03.06 | 3:55.21 | 274731 | 292376
19 | 64:58.27 | 3:00.47 | 292377 | 305923
20 | 67:58.74 | 3:44.16 | 305924 | 322739
21 | 71:43.15 | 3:26.10 | 322740 | 338199
22 | 75:09.25 | 3:35.34 | 338200 | 354358
23 | 78:44.59 | 4:06.73 | 354359 | 372881
24 | 82:51.57 | 3:36.00 | 372882 | 389081
25 | 86:27.57 | 3:05.03 | 389082 | 402959
Range status and errors
Selected range
Filename D:\flacmusic.ru rip by ротарь\Various Artists - Новые и любимые хиты 2013.wav
Peak level 97.6 %
Extraction speed 5.0 X
Range quality 100.0 %
Test CRC AA3BEAAB
Copy CRC AA3BEAAB
Copy OK
No errors occurred
AccurateRip summary
Track 1 not present in database
Track 2 not present in database
Track 3 not present in database
Track 4 not present in database
Track 5 not present in database
Track 6 not present in database
Track 7 not present in database
Track 8 not present in database
Track 9 not present in database
Track 10 not present in database
Track 11 not present in database
Track 12 not present in database
Track 13 not present in database
Track 14 not present in database
Track 15 not present in database
Track 16 not present in database
Track 17 not present in database
Track 18 not present in database
Track 19 not present in database
Track 20 not present in database
Track 21 not present in database
Track 22 not present in database
Track 23 not present in database
Track 24 not present in database
Track 25 not present in database
None of the tracks are present in the AccurateRip database
End of status report
==== Log checksum 9F6A047BB1D95FB4489798C05FF9DC24AC51FF11B1FA604BAD9A2BA04B4781FF ====

Log AudioChecker

AUDIOCHECKER v2.0 beta (build 457) - by Dester - opdester@freemail.hu
~~~~~~~~~~~~~~~~~~~~~~~~~~~~~~~~~~
-=== НЕ РЕДАКТИРУЙТЕ ЭТОТ ФАЙЛ! ===-
Путь: ...\VA-Novye.i.lyubimye.hity-2013.Flac
1 -=- VA - Новые и любимые хиты 2013.flac -=- CDDA (100%)
188681860
[Profile]  [PM] 
Display posts:    
Reply to topic

Current time is: 25-Feb 15:14

All times are UTC + 2



You cannot post new topics in this forum
You cannot reply to topics in this forum
You cannot edit your posts in this forum
You cannot delete your posts in this forum
You cannot vote in polls in this forum
You cannot attach files in this forum
You cannot download files in this forum