(Pop) Руки Вверх (Сергей Жуков‎) - Дискография (27 CD) - 1997-2012, FLAC (image+.cue), lossless

Reply to topic
 
Author
Message

mario-OS ®

Gender: Male

Longevity: 11 years

Posts: 575

Reputation: 31 [+] [-]

Location: ...из страны, где шлюха стоит всего лишь доллар, солнце всегда и везде (с)

mario-OS · Post 30-Sep-2013 21:34

[Quote] 

Руки Вверх (Сергей Жуков‎) - Дискография (27 CD) Жанр: PopСтрана-производитель дисков: Czech Republic, Россия, Europe
Год издания дисков: 1997-2012
Аудио кодек: FLAC (*.flac)
Тип рипа: image+.cue
Битрейт аудио: lossless
Источник (релизер): Рипы с личных оригиналов
Наличие сканов в содержимом раздачи: 600 dpi, JPG

1997 - Дышите равномерно

Дышите равномерно Страна-производитель диска: Czech Republic
Год издания диска: 1997
Издатель (лейбл): J.S.P. Company
Номер по каталогу: 010 124-2
Продолжительность: 40:41--Треклист01. Доброе утро
02. Малыш
03. Студент
04. История любви
05. Здравствуй
06. Доброе утро (club mix)
07. Бандито
08. Двигай телом (radio edit)
09. Love story (club mix)
10. Последний поцелуй
--

Лог создания рипа

Exact Audio Copy V0.99 prebeta 5 from 4. May 2009
EAC extraction logfile from 1. November 2012, 23:42
Руки Вверх / Дышите равномерно
Used drive : PIONEER DVD-RW DVR-212 Adapter: 1 ID: 0
Read mode : Secure
Utilize accurate stream : Yes
Defeat audio cache : Yes
Make use of C2 pointers : No
Read offset correction : 48
Overread into Lead-In and Lead-Out : No
Fill up missing offset samples with silence : Yes
Delete leading and trailing silent blocks : No
Null samples used in CRC calculations : Yes
Used interface : Native Win32 interface for Win NT & 2000
Used output format : Internal WAV Routines
Sample format : 44.100 Hz; 16 Bit; Stereo
TOC of the extracted CD
Track | Start | Length | Start sector | End sector
---------------------------------------------------------
1 | 0:00.00 | 4:10.40 | 0 | 18789
2 | 4:10.40 | 3:50.41 | 18790 | 36080
3 | 8:01.06 | 3:51.27 | 36081 | 53432
4 | 11:52.33 | 3:57.13 | 53433 | 71220
5 | 15:49.46 | 4:55.14 | 71221 | 93359
6 | 20:44.60 | 4:47.57 | 93360 | 114941
7 | 25:32.42 | 2:32.45 | 114942 | 126386
8 | 28:05.12 | 3:57.38 | 126387 | 144199
9 | 32:02.50 | 4:47.41 | 144200 | 165765
10 | 36:50.16 | 3:51.09 | 165766 | 183099
Range status and errors
Selected range
Filename M:\FLAC (bruk67)\MP3\Руки Вверх (FLAC)\1997 - Дышите равномерно\Руки Вверх - Дышите равномерно.wav
Peak level 94.7 %
Range quality 99.9 %
Test CRC ECD13654
Copy CRC ECD13654
Copy OK
No errors occurred
AccurateRip summary
Track 1 cannot be verified as accurate (confidence 1) [4D363A78], AccurateRip returned [EBD180AE]
Track 2 cannot be verified as accurate (confidence 1) [49D0998F], AccurateRip returned [89DD703F]
Track 3 cannot be verified as accurate (confidence 1) [842D9F13], AccurateRip returned [67B6D176]
Track 4 cannot be verified as accurate (confidence 1) [8F43CB21], AccurateRip returned [152D41BB]
Track 5 cannot be verified as accurate (confidence 1) [136F3A5C], AccurateRip returned [A178E4B9]
Track 6 cannot be verified as accurate (confidence 1) [82F3A68F], AccurateRip returned [372A38D3]
Track 7 cannot be verified as accurate (confidence 1) [803715DD], AccurateRip returned [08F0E521]
Track 8 cannot be verified as accurate (confidence 1) [6B0C5DFE], AccurateRip returned [4FA9865D]
Track 9 cannot be verified as accurate (confidence 1) [9EA220A9], AccurateRip returned [711EF77C]
Track 10 cannot be verified as accurate (confidence 1) [B359CC04], AccurateRip returned [16A737E0]
No tracks could be verified as accurate
You may have a different pressing from the one(s) in the database
End of status report

Скриншот спектра частот

1997 - Дышите равномерно (полная версия + 4 новые песни)

Дышите равномерно (полная версия + 4 новые песни) Страна-производитель диска: Россия
Год издания диска: 1997
Издатель (лейбл): J.S.P. Company
Номер по каталогу: 010 135-2
Продолжительность: 56:02--Треклист01. Доброе утро
02. История любви
03. Студент
04. 1,2,3,4,5
05. По кайфу
06. Последний поцелуй
07. Малыш
08. Двигай телом
09. Love Story (club mix)
10. Бандито
11. 1, 2, 3, 4, 5 (gin mix)
12. Здравствуй
13. Я жду
--

Лог создания рипа

Exact Audio Copy V0.99 prebeta 5 from 4. May 2009
EAC extraction logfile from 2. November 2012, 1:37
Руки Вверх / Дышите равномерно (полная версия + 4 новые песни)
Used drive : PIONEER DVD-RW DVR-212 Adapter: 1 ID: 0
Read mode : Secure
Utilize accurate stream : Yes
Defeat audio cache : Yes
Make use of C2 pointers : No
Read offset correction : 48
Overread into Lead-In and Lead-Out : No
Fill up missing offset samples with silence : Yes
Delete leading and trailing silent blocks : No
Null samples used in CRC calculations : Yes
Used interface : Native Win32 interface for Win NT & 2000
Used output format : Internal WAV Routines
Sample format : 44.100 Hz; 16 Bit; Stereo
TOC of the extracted CD
Track | Start | Length | Start sector | End sector
---------------------------------------------------------
1 | 0:00.00 | 4:07.74 | 0 | 18598
2 | 4:07.74 | 3:57.03 | 18599 | 36376
3 | 8:05.02 | 3:51.00 | 36377 | 53701
4 | 11:56.02 | 4:45.00 | 53702 | 75076
5 | 16:41.02 | 3:16.36 | 75077 | 89812
6 | 19:57.38 | 3:52.69 | 89813 | 107281
7 | 23:50.32 | 3:50.08 | 107282 | 124539
8 | 27:40.40 | 5:24.44 | 124540 | 148883
9 | 33:05.09 | 4:47.31 | 148884 | 170439
10 | 37:52.40 | 2:32.37 | 170440 | 181876
11 | 40:25.02 | 5:39.49 | 181877 | 207350
12 | 46:04.51 | 4:54.54 | 207351 | 229454
13 | 50:59.30 | 5:02.09 | 229455 | 252113
Range status and errors
Selected range
Filename M:\FLAC (bruk67)\MP3\Руки Вверх (FLAC)\1997 - Дышите равномерно (полная версия + 4 новые песни)\Руки Вверх - Дышите равномерно (полная версия + 4 новые песни).wav
Peak level 100.0 %
Range quality 99.9 %
Test CRC CB940C77
Copy CRC CB940C77
Copy OK
No errors occurred
AccurateRip summary
Track 1 accurately ripped (confidence 2) [5CF3F72C]
Track 2 accurately ripped (confidence 2) [2D4EE9A3]
Track 3 accurately ripped (confidence 2) [FBB2D4E3]
Track 4 accurately ripped (confidence 2) [B3FFF577]
Track 5 accurately ripped (confidence 2) [32381C13]
Track 6 accurately ripped (confidence 2) [4839C7AC]
Track 7 accurately ripped (confidence 2) [E85CB44F]
Track 8 accurately ripped (confidence 2) [09EF4F24]
Track 9 accurately ripped (confidence 2) [298D5CCC]
Track 10 accurately ripped (confidence 2) [F956ED01]
Track 11 accurately ripped (confidence 2) [1EF7CF61]
Track 12 accurately ripped (confidence 2) [972EE24B]
Track 13 accurately ripped (confidence 2) [5A336FE4]
All tracks accurately ripped
End of status report

Скриншот спектра частот

1998 - Руки Вверх, Доктор Шлягер!

Руки Вверх, Доктор Шлягер! Страна-производитель диска: Europe
Год издания диска: 1998
Издатель (лейбл): J.S.P. Company/JAM
Номер по каталогу: 010 138-2
Продолжительность: 38:32--Треклист01. Я боюсь твоей любви
02. Синий туман
03. Ты мне не снишься
04. Где же ты была
05. Бабушки - старушки
06. Так вот какая ты
07. Не сыпь мне соль на рану
08. До чего я невезучий
09. Вот и расстались
10. Попурри
--

Лог создания рипа

Exact Audio Copy V0.99 prebeta 5 from 4. May 2009
EAC extraction logfile from 21. November 2012, 0:34
Руки Вверх и Вячеслав Добрынин / Руки Вверх, Доктор Шлягер!
Used drive : PLEXTOR DVDR PX-760A Adapter: 4 ID: 2
Read mode : Secure
Utilize accurate stream : Yes
Defeat audio cache : Yes
Make use of C2 pointers : No
Read offset correction : 30
Overread into Lead-In and Lead-Out : No
Fill up missing offset samples with silence : Yes
Delete leading and trailing silent blocks : No
Null samples used in CRC calculations : Yes
Used interface : Installed external ASPI interface
Used output format : Internal WAV Routines
Sample format : 44.100 Hz; 16 Bit; Stereo
TOC of the extracted CD
Track | Start | Length | Start sector | End sector
---------------------------------------------------------
1 | 0:00.00 | 4:47.33 | 0 | 21557
2 | 4:47.33 | 4:01.12 | 21558 | 39644
3 | 8:48.45 | 3:50.70 | 39645 | 56964
4 | 12:39.40 | 3:26.17 | 56965 | 72431
5 | 16:05.57 | 3:16.52 | 72432 | 87183
6 | 19:22.34 | 3:38.49 | 87184 | 103582
7 | 23:01.08 | 4:56.04 | 103583 | 125786
8 | 27:57.12 | 3:19.27 | 125787 | 140738
9 | 31:16.39 | 2:19.47 | 140739 | 151210
10 | 33:36.11 | 4:55.69 | 151211 | 173404
Range status and errors
Selected range
Filename M:\FLAC (bruk67)\MP3\Руки Вверх (FLAC)\1998 - Руки Вверх, Доктор Шлягер!\Руки Вверх и Вячеслав Добрынин - Руки Вверх, Доктор Шлягер!.wav
Peak level 100.0 %
Range quality 100.0 %
Test CRC EA455E27
Copy CRC EA455E27
Copy OK
No errors occurred
AccurateRip summary
Track 1 cannot be verified as accurate (confidence 1) [404F0061], AccurateRip returned [8BD5AEF7]
Track 2 cannot be verified as accurate (confidence 1) [93B37B4B], AccurateRip returned [B23427EB]
Track 3 cannot be verified as accurate (confidence 1) [BE975E76], AccurateRip returned [4A7E9FF0]
Track 4 cannot be verified as accurate (confidence 1) [0E32F64B], AccurateRip returned [0FA92DD9]
Track 5 cannot be verified as accurate (confidence 1) [BD8BE8F3], AccurateRip returned [0E6E1B0B]
Track 6 cannot be verified as accurate (confidence 1) [EA2209AE], AccurateRip returned [99D7AFD4]
Track 7 cannot be verified as accurate (confidence 1) [1565E7E4], AccurateRip returned [957A7CD8]
Track 8 cannot be verified as accurate (confidence 1) [B3EDFC76], AccurateRip returned [B8263CD6]
Track 9 cannot be verified as accurate (confidence 1) [51A083C6], AccurateRip returned [FE964CB4]
Track 10 cannot be verified as accurate (confidence 1) [A4B023F3], AccurateRip returned [2C54FFAB]
No tracks could be verified as accurate
You may have a different pressing from the one(s) in the database
End of status report

Скриншот спектра частот

1998 - Сделай погромче!

Сделай погромче! Страна-производитель диска: Europe
Год издания диска: 1998
Издатель (лейбл): J.S.P. Company/JAM
Номер по каталогу: 010 150-2
Продолжительность: 50:07--Треклист01. Интро
02. Крошка моя
03. Чужие губы
04. Лишь о тебе мечтая
05. Я тебя украду
06. Будьте здоровы!
07. Девчонка
08. Маугли
09. Песенка
10. Джимми
11. Вернись
12. Не забуду я тебя никогда
--

Лог создания рипа

Exact Audio Copy V0.99 prebeta 5 from 4. May 2009
EAC extraction logfile from 2. November 2012, 2:17
Руки Вверх / Сделай погромче!
Used drive : PIONEER DVD-RW DVR-212 Adapter: 1 ID: 0
Read mode : Secure
Utilize accurate stream : Yes
Defeat audio cache : Yes
Make use of C2 pointers : No
Read offset correction : 48
Overread into Lead-In and Lead-Out : No
Fill up missing offset samples with silence : Yes
Delete leading and trailing silent blocks : No
Null samples used in CRC calculations : Yes
Used interface : Native Win32 interface for Win NT & 2000
Used output format : Internal WAV Routines
Sample format : 44.100 Hz; 16 Bit; Stereo
TOC of the extracted CD
Track | Start | Length | Start sector | End sector
---------------------------------------------------------
1 | 0:00.00 | 1:14.41 | 0 | 5590
2 | 1:14.41 | 4:10.52 | 5591 | 24392
3 | 5:25.18 | 4:02.32 | 24393 | 42574
4 | 9:27.50 | 5:20.01 | 42575 | 66575
5 | 14:47.51 | 4:39.19 | 66576 | 87519
6 | 19:26.70 | 3:58.28 | 87520 | 105397
7 | 23:25.23 | 4:17.17 | 105398 | 124689
8 | 27:42.40 | 4:37.55 | 124690 | 145519
9 | 32:20.20 | 3:04.34 | 145520 | 159353
10 | 35:24.54 | 4:44.06 | 159354 | 180659
11 | 40:08.60 | 5:48.70 | 180660 | 206829
12 | 45:57.55 | 4:09.55 | 206830 | 225559
Range status and errors
Selected range
Filename M:\FLAC (bruk67)\MP3\Руки Вверх (FLAC)\1998 - Сделай погромче!\Руки Вверх - Сделай погромче!.wav
Peak level 98.8 %
Range quality 100.0 %
Test CRC 74A3C4C2
Copy CRC 74A3C4C2
Copy OK
No errors occurred
AccurateRip summary
Track 1 cannot be verified as accurate (confidence 3) [A170C2ED], AccurateRip returned [A3E3F685]
Track 2 cannot be verified as accurate (confidence 3) [240F1D9A], AccurateRip returned [AE419C6E]
Track 3 cannot be verified as accurate (confidence 3) [0528038B], AccurateRip returned [65A5D3FD]
Track 4 cannot be verified as accurate (confidence 3) [B73C6199], AccurateRip returned [FAF19E19]
Track 5 cannot be verified as accurate (confidence 3) [122449AA], AccurateRip returned [C6BE8389]
Track 6 cannot be verified as accurate (confidence 3) [420A9E63], AccurateRip returned [CF2EACA7]
Track 7 cannot be verified as accurate (confidence 3) [C0BB0986], AccurateRip returned [837412BC]
Track 8 cannot be verified as accurate (confidence 3) [A583D215], AccurateRip returned [C14FE495]
Track 9 cannot be verified as accurate (confidence 3) [208AFDCF], AccurateRip returned [6151952F]
Track 10 cannot be verified as accurate (confidence 3) [B778E018], AccurateRip returned [5B62E812]
Track 11 cannot be verified as accurate (confidence 3) [0A6001BF], AccurateRip returned [008178FD]
Track 12 cannot be verified as accurate (confidence 3) [0B7FC171], AccurateRip returned [16CFFCA7]
No tracks could be verified as accurate
You may have a different pressing from the one(s) in the database
End of status report

Скриншот спектра частот

1998 - Сделай ещё громче!

-----------------------Временно отсутствует в раздаче---------------------Сделай ещё громче! Страна-производитель диска: Россия
Год издания диска: 1998
Издатель (лейбл): Творческо-продюсерский центр Андрея Маликова
Номер по каталогу: 001-2-98
Продолжительность: ---Треклист01. Пропадаешь зря
02. Чужие губы
03. Девченка
04. Лишь о тебе мечтая
05. Джимми /remix/
06. Club Disco
07. Крошка моя
08. Вернись
09. Индеец
10. Я тебя украду
11. Не забуду я тебя никогда
12. Некрасивая
--

Лог создания рипа

Скриншот спектра частот

1998 - Сделай еще громче (+ 4 новые песни)

Сделай еще громче (+ 4 новые песни) Страна-производитель диска: Россия
Год издания диска: 1998
Издатель (лейбл): J.S.P. Company
Номер по каталогу: 010 169-2
Продолжительность: 1:04:29--Треклист01. Крошка моя
02. Вернись
03. Лишь о тебе мечтая
04. Ты мне не снишься
05. Я тебя украду
06. Будьте здоровы
07. Я боюсь твоей любви
08. Девчонка
09. Так вот какая ты
10. Маугли
11. Песенка
12. Джимми
13. Вот увидишь
14. Чужие губы
15. Не забуду я тебя никогда
--

Лог создания рипа

Exact Audio Copy V0.99 prebeta 5 from 4. May 2009
EAC extraction logfile from 2. November 2012, 23:23
Руки Вверх / Сделай еще громче (+ 4 новые песни)
Used drive : PIONEER DVD-RW DVR-212 Adapter: 1 ID: 0
Read mode : Secure
Utilize accurate stream : Yes
Defeat audio cache : Yes
Make use of C2 pointers : No
Read offset correction : 48
Overread into Lead-In and Lead-Out : No
Fill up missing offset samples with silence : Yes
Delete leading and trailing silent blocks : No
Null samples used in CRC calculations : Yes
Used interface : Native Win32 interface for Win NT & 2000
Used output format : Internal WAV Routines
Sample format : 44.100 Hz; 16 Bit; Stereo
TOC of the extracted CD
Track | Start | Length | Start sector | End sector
---------------------------------------------------------
1 | 0:00.00 | 4:11.39 | 0 | 18863
2 | 4:11.39 | 5:50.62 | 18864 | 45175
3 | 10:02.26 | 5:20.28 | 45176 | 69203
4 | 15:22.54 | 3:49.31 | 69204 | 86409
5 | 19:12.10 | 4:39.57 | 86410 | 107391
6 | 23:51.67 | 3:58.56 | 107392 | 125297
7 | 27:50.48 | 4:46.18 | 125298 | 146765
8 | 32:36.66 | 4:17.43 | 146766 | 166083
9 | 36:54.34 | 3:37.27 | 166084 | 182385
10 | 40:31.61 | 4:37.73 | 182386 | 203233
11 | 45:09.59 | 3:04.67 | 203234 | 217100
12 | 48:14.51 | 4:44.31 | 217101 | 238431
13 | 52:59.07 | 3:18.05 | 238432 | 253286
14 | 56:17.12 | 4:02.67 | 253287 | 271503
15 | 60:20.04 | 4:08.49 | 271504 | 290152
Range status and errors
Selected range
Filename M:\FLAC (bruk67)\MP3\Руки Вверх (FLAC)\1998 - Сделай еще громче (+ 4 новые песни)\Руки Вверх - Сделай еще громче (+ 4 новые песни).wav
Peak level 98.8 %
Range quality 100.0 %
Test CRC FB803332
Copy CRC FB803332
Copy OK
No errors occurred
AccurateRip summary
Track 1 accurately ripped (confidence 2) [71E63855]
Track 2 accurately ripped (confidence 2) [88F9865B]
Track 3 accurately ripped (confidence 2) [042CA1F1]
Track 4 accurately ripped (confidence 2) [EC64937E]
Track 5 accurately ripped (confidence 2) [EE8874A8]
Track 6 accurately ripped (confidence 2) [2E15B35F]
Track 7 accurately ripped (confidence 2) [B7A2DCBE]
Track 8 accurately ripped (confidence 2) [3EE6FEF8]
Track 9 accurately ripped (confidence 2) [54C148B9]
Track 10 accurately ripped (confidence 2) [A7F48ED5]
Track 11 accurately ripped (confidence 2) [425399F6]
Track 12 accurately ripped (confidence 2) [8B739FEB]
Track 13 accurately ripped (confidence 2) [BAF07316]
Track 14 accurately ripped (confidence 2) [AF714581]
Track 15 accurately ripped (confidence 2) [1C7D69AE]
All tracks accurately ripped
End of status report

Скриншот спектра частот

1999 - Без тормозов

--------------------Временно отсутствует в раздаче--------------------Без тормозов Страна-производитель диска: Россия
Год издания диска: 1999
Издатель (лейбл): Творческо-продюсерский центр Андрея Маликова
Номер по каталогу: 002-2-99
Продолжительность: ---Треклист01. Без любви
02. Ну где же вы девчонки
03. Атаман
04. Полечу за тобой
05. Дома не сиди
06. Руки Вверх!
07. Ты назови его как меня (Сынишка)
08. Лучший парень
09. Песенка номер два
10. Если ты разлюбила
11. Я не отдам тебя никому
12. Без тормозов
--

Лог создания рипа

-

Скриншот спектра частот

1999 - Crazy

Crazy Страна-производитель диска: Россия
Год издания диска: 1999
Издатель (лейбл): Творческо-продюсерский центр Андрея Маликова
Номер по каталогу: 003-2-99
Продолжительность: 48:34--Треклист01. Безумие (Crazy Mind)
02. Не выйдешь (No Escape)
03. Прости (Im Sorry)
04. Убей меня (Kill Me)
05. Без любви
06. Я не отдам тебя никому
07. Проблемы (Problems)
08. Ну где же вы девчонки?
09. Крошка вставай (Wake Up Baby)
10. Чужие губы (Karaoke)
11. Крошка моя (Karaoke)
12. Ну где же вы девчонки? (Karaoke)
--

Лог создания рипа

Exact Audio Copy V0.99 prebeta 5 from 4. May 2009
EAC extraction logfile from 3. November 2012, 1:05
Руки Вверх / Crazy
Used drive : PIONEER DVD-RW DVR-212 Adapter: 1 ID: 0
Read mode : Secure
Utilize accurate stream : Yes
Defeat audio cache : Yes
Make use of C2 pointers : No
Read offset correction : 48
Overread into Lead-In and Lead-Out : No
Fill up missing offset samples with silence : Yes
Delete leading and trailing silent blocks : No
Null samples used in CRC calculations : Yes
Used interface : Native Win32 interface for Win NT & 2000
Used output format : Internal WAV Routines
Sample format : 44.100 Hz; 16 Bit; Stereo
TOC of the extracted CD
Track | Start | Length | Start sector | End sector
---------------------------------------------------------
1 | 0:00.00 | 3:27.44 | 0 | 15568
2 | 3:27.44 | 3:35.04 | 15569 | 31697
3 | 7:02.48 | 4:00.45 | 31698 | 49742
4 | 11:03.18 | 4:30.61 | 49743 | 70053
5 | 15:34.04 | 4:49.26 | 70054 | 91754
6 | 20:23.30 | 4:48.43 | 91755 | 113397
7 | 25:11.73 | 2:37.13 | 113398 | 125185
8 | 27:49.11 | 4:42.51 | 125186 | 146386
9 | 32:31.62 | 3:12.45 | 146387 | 160831
10 | 35:44.32 | 4:01.35 | 160832 | 178941
11 | 39:45.67 | 4:09.63 | 178942 | 197679
12 | 43:55.55 | 4:38.02 | 197680 | 218531
Range status and errors
Selected range
Filename M:\FLAC (bruk67)\MP3\Руки Вверх (FLAC)\1999 - Crazy\Руки Вверх - Crazy.wav
Peak level 100.0 %
Range quality 100.0 %
Test CRC 39E61CF4
Copy CRC 39E61CF4
Copy OK
No errors occurred
AccurateRip summary
Track 1 not present in database
Track 2 not present in database
Track 3 not present in database
Track 4 not present in database
Track 5 not present in database
Track 6 not present in database
Track 7 not present in database
Track 8 not present in database
Track 9 not present in database
Track 10 not present in database
Track 11 not present in database
Track 12 not present in database
None of the tracks are present in the AccurateRip database
End of status report

Скриншот спектра частот

2000 - Без тормозов (+ bonus)

Без тормозов (+ bonus) Страна-производитель диска: Россия
Год издания диска: 2000
Издатель (лейбл): J.S.P. Company
Номер по каталогу: 010 249-2
Продолжительность: 56:25--Треклист01. Без любви
02. Ну где же вы девчонки
03. Атаман
04. Полечу за тобою
05. Дома не сиди
06. Руки Вверх!
07. Ты назови его как меня (Сынишка)
08. Лучший парень
09. Песенка номер два
10. Если ты разлюбила
11. Я не отдам тебя никому
12. Без тормозов
13. Hands Up Mix
--

Лог создания рипа

Exact Audio Copy V0.99 prebeta 5 from 4. May 2009
EAC extraction logfile from 3. November 2012, 0:46
Руки Вверх / Без тормозов (+ bonus)
Used drive : PIONEER DVD-RW DVR-212 Adapter: 1 ID: 0
Read mode : Secure
Utilize accurate stream : Yes
Defeat audio cache : Yes
Make use of C2 pointers : No
Read offset correction : 48
Overread into Lead-In and Lead-Out : No
Fill up missing offset samples with silence : Yes
Delete leading and trailing silent blocks : No
Null samples used in CRC calculations : Yes
Used interface : Native Win32 interface for Win NT & 2000
Used output format : Internal WAV Routines
Sample format : 44.100 Hz; 16 Bit; Stereo
TOC of the extracted CD
Track | Start | Length | Start sector | End sector
---------------------------------------------------------
1 | 0:00.00 | 4:45.08 | 0 | 21382
2 | 4:45.08 | 4:37.12 | 21383 | 42169
3 | 9:22.20 | 3:36.70 | 42170 | 58439
4 | 12:59.15 | 4:38.28 | 58440 | 79317
5 | 17:37.43 | 4:41.70 | 79318 | 100462
6 | 22:19.38 | 3:42.65 | 100463 | 117177
7 | 26:02.28 | 4:39.07 | 117178 | 138109
8 | 30:41.35 | 4:17.15 | 138110 | 157399
9 | 34:58.50 | 4:17.20 | 157400 | 176694
10 | 39:15.70 | 4:55.38 | 176695 | 198857
11 | 44:11.33 | 4:44.70 | 198858 | 220227
12 | 48:56.28 | 3:28.05 | 220228 | 235832
13 | 52:24.33 | 4:00.40 | 235833 | 253872
Range status and errors
Selected range
Filename M:\FLAC (bruk67)\MP3\Руки Вверх (FLAC)\2000 - Без тормозов (+ bonus)\Руки Вверх - Без тормозов (+ bonus).wav
Peak level 100.0 %
Range quality 100.0 %
Test CRC 9C134316
Copy CRC 9C134316
Copy OK
No errors occurred
AccurateRip summary
Track 1 not present in database
Track 2 not present in database
Track 3 not present in database
Track 4 not present in database
Track 5 not present in database
Track 6 not present in database
Track 7 not present in database
Track 8 not present in database
Track 9 not present in database
Track 10 not present in database
Track 11 not present in database
Track 12 not present in database
Track 13 not present in database
None of the tracks are present in the AccurateRip database
End of status report

Скриншот спектра частот

2000 - Совсем без тормозов!

Совсем без тормозов! Страна-производитель диска: Россия
Год издания диска: 2000
Издатель (лейбл): J.S.P. Company
Номер по каталогу: 010 195-2
Продолжительность: 1:10:28--Треклист01. Без любви
02. Пропадаешь зря
03. Ну где же вы девчонки?
04. Атаман
05. Некрасивая
06. Я не отдам тебя никому
07. Дома не сиди
08. Без тормозов
09. Назови его как меня
10. Полечу за тобой
11. Лучший парень
12. Песенка номер два
13. Если ты не разлюбила
14. Без любви (инструментальная)
15. Hands Up Mix
16. Руки Вверх!
--

Лог создания рипа

Exact Audio Copy V0.99 prebeta 5 from 4. May 2009
EAC extraction logfile from 2. November 2012, 23:53
Руки Вверх / Совсем без тормозов!
Used drive : PIONEER DVD-RW DVR-212 Adapter: 1 ID: 0
Read mode : Secure
Utilize accurate stream : Yes
Defeat audio cache : Yes
Make use of C2 pointers : No
Read offset correction : 48
Overread into Lead-In and Lead-Out : No
Fill up missing offset samples with silence : Yes
Delete leading and trailing silent blocks : No
Null samples used in CRC calculations : Yes
Used interface : Native Win32 interface for Win NT & 2000
Used output format : Internal WAV Routines
Sample format : 44.100 Hz; 16 Bit; Stereo
TOC of the extracted CD
Track | Start | Length | Start sector | End sector
---------------------------------------------------------
1 | 0:00.00 | 4:44.00 | 0 | 21299
2 | 4:44.00 | 4:51.38 | 21300 | 43162
3 | 9:35.38 | 4:37.00 | 43163 | 63937
4 | 14:12.38 | 3:36.00 | 63938 | 80137
5 | 17:48.38 | 4:43.45 | 80138 | 101407
6 | 22:32.08 | 4:43.00 | 101408 | 122632
7 | 27:15.08 | 4:39.33 | 122633 | 143590
8 | 31:54.41 | 3:26.55 | 143591 | 159095
9 | 35:21.21 | 4:37.00 | 159096 | 179870
10 | 39:58.21 | 4:36.40 | 179871 | 200610
11 | 44:34.61 | 4:17.10 | 200611 | 219895
12 | 48:51.71 | 4:17.27 | 219896 | 239197
13 | 53:09.23 | 4:54.00 | 239198 | 261247
14 | 58:03.23 | 4:44.46 | 261248 | 282593
15 | 62:47.69 | 3:59.26 | 282594 | 300544
16 | 66:47.20 | 3:40.48 | 300545 | 317092
Range status and errors
Selected range
Filename M:\FLAC (bruk67)\MP3\Руки Вверх (FLAC)\2000 - Совсем без тормозов!\Руки Вверх - Совсем без тормозов!.wav
Peak level 100.0 %
Range quality 100.0 %
Test CRC C310B5AB
Copy CRC C310B5AB
Copy OK
No errors occurred
AccurateRip summary
Track 1 not present in database
Track 2 not present in database
Track 3 not present in database
Track 4 not present in database
Track 5 not present in database
Track 6 not present in database
Track 7 not present in database
Track 8 not present in database
Track 9 not present in database
Track 10 not present in database
Track 11 not present in database
Track 12 not present in database
Track 13 not present in database
Track 14 not present in database
Track 15 not present in database
Track 16 not present in database
None of the tracks are present in the AccurateRip database
End of status report

Скриншот спектра частот

2000 - Звёздная коллекция

Звёздная коллекция Страна-производитель диска: Россия
Год издания диска: 2000
Издатель (лейбл): J.S.P.Records/Группа ДЖЕМ
Номер по каталогу: JAM 010 227-2
Продолжительность: 1:15:50--Треклист01. Доброе утро
02. Студент
03. 1, 2, 3, 4, 5
04. Малыш
05. Крошка моя
06. Чужие губы
07. Лишь о тебе мечтая
08. Песенка
09. Не забуду я тебя никогда
10. Я боюсь твоей любви
11. Ты мне не снишься
12. Вот увидишь
13. Без любви
14. Пропадаешь зря
15. Атаман
16 . Назови его как меня
17. Я не отдам тебя никому
18. Ну где же вы, девчонки?
--

Лог создания рипа

Exact Audio Copy V0.99 prebeta 5 from 4. May 2009
EAC extraction logfile from 9. January 2013, 21:01
Руки Вверх / Звёздная коллекция
Used drive : PIONEER DVD-RW DVR-212 Adapter: 1 ID: 0
Read mode : Secure
Utilize accurate stream : Yes
Defeat audio cache : Yes
Make use of C2 pointers : No
Read offset correction : 48
Overread into Lead-In and Lead-Out : No
Fill up missing offset samples with silence : Yes
Delete leading and trailing silent blocks : No
Null samples used in CRC calculations : Yes
Used interface : Native Win32 interface for Win NT & 2000
Used output format : Internal WAV Routines
Sample format : 44.100 Hz; 16 Bit; Stereo
TOC of the extracted CD
Track | Start | Length | Start sector | End sector
---------------------------------------------------------
1 | 0:00.00 | 4:05.72 | 0 | 18446
2 | 4:05.72 | 3:48.63 | 18447 | 35609
3 | 7:54.60 | 4:42.37 | 35610 | 56796
4 | 12:37.22 | 3:46.68 | 56797 | 73814
5 | 16:24.15 | 4:07.52 | 73815 | 92391
6 | 20:31.67 | 3:58.00 | 92392 | 110241
7 | 24:29.67 | 5:16.08 | 110242 | 133949
8 | 29:46.00 | 3:01.70 | 133950 | 147594
9 | 32:47.70 | 4:05.00 | 147595 | 165969
10 | 36:52.70 | 4:42.10 | 165970 | 187129
11 | 41:35.05 | 3:47.15 | 187130 | 204169
12 | 45:22.20 | 3:15.57 | 204170 | 218851
13 | 48:38.02 | 4:44.08 | 218852 | 240159
14 | 53:22.10 | 4:51.42 | 240160 | 262026
15 | 58:13.52 | 3:34.30 | 262027 | 278106
16 | 61:48.07 | 4:36.68 | 278107 | 298874
17 | 66:25.00 | 4:42.30 | 298875 | 320054
18 | 71:07.30 | 4:39.02 | 320055 | 340981
Range status and errors
Selected range
Filename M:\FLAC (bruk67)\MP3\Руки Вверх (FLAC)\2000 - Звёздная коллекция\Руки Вверх - Звёздная коллекция.wav
Peak level 100.0 %
Range quality 100.0 %
Test CRC 3F633FEB
Copy CRC 3F633FEB
Copy OK
No errors occurred
AccurateRip summary
Track 1 not present in database
Track 2 not present in database
Track 3 not present in database
Track 4 not present in database
Track 5 not present in database
Track 6 not present in database
Track 7 not present in database
Track 8 not present in database
Track 9 not present in database
Track 10 not present in database
Track 11 not present in database
Track 12 not present in database
Track 13 not present in database
Track 14 not present in database
Track 15 not present in database
Track 16 not present in database
Track 17 not present in database
Track 18 not present in database
None of the tracks are present in the AccurateRip database
End of status report

Скриншот спектра частот

2000 - Здравствуй, это я...

-----------------------Временно отсутствует в раздаче-----------------------Здравствуй, это я... Страна-производитель диска: Россия
Год издания диска: 2000
Издатель (лейбл): АРС Records
Номер по каталогу: АРС 049-2000
Продолжительность: ---Треклист01. Ай-яй-яй
02. Он не любит тебя
03. Киска-любовь
04. Прости
05. I Like
06. Не зови меня красивою...
07. Парень
08. Баю-бай
09. Так тебе и надо
10. Песенка №3
11. Здравствуй,это я...
12. Алёшка
--

Лог создания рипа

-

Скриншот спектра частот

2001 - Не бойся, я с тобой!

Не бойся, я с тобой! Страна-производитель диска: Россия
Год издания диска: 2001
Издатель (лейбл): АРС Records
Номер по каталогу: ATCD-19-01
Продолжительность: 1:00:12--Треклист01. 18 мне уже
02. Молодой, красивый
03. Доброй, Нежной, Ласковой
04. Выбирай сама
05. Серёжа (dance mix)
06. Он не я
07. Что мне делать с тобой?
08. Только для тебя (feat. Акула)
09. Думала
10. Песенка №4
11. Не бойся, я с тобой
12. NO POP
13. Серёжа (pop mix)
14. У реки девчонка
--

Лог создания рипа

Exact Audio Copy V0.99 prebeta 5 from 4. May 2009
EAC extraction logfile from 3. November 2012, 2:24
Руки Вверх / Не бойся, я с тобой!
Used drive : PIONEER DVD-RW DVR-212 Adapter: 1 ID: 0
Read mode : Secure
Utilize accurate stream : Yes
Defeat audio cache : Yes
Make use of C2 pointers : No
Read offset correction : 48
Overread into Lead-In and Lead-Out : No
Fill up missing offset samples with silence : Yes
Delete leading and trailing silent blocks : No
Null samples used in CRC calculations : Yes
Used interface : Native Win32 interface for Win NT & 2000
Used output format : Internal WAV Routines
Sample format : 44.100 Hz; 16 Bit; Stereo
TOC of the extracted CD
Track | Start | Length | Start sector | End sector
---------------------------------------------------------
1 | 0:00.00 | 4:07.00 | 0 | 18524
2 | 4:07.00 | 3:49.11 | 18525 | 35710
3 | 7:56.11 | 3:43.73 | 35711 | 52508
4 | 11:40.09 | 3:45.72 | 52509 | 69455
5 | 15:26.06 | 4:15.32 | 69456 | 88612
6 | 19:41.38 | 4:14.66 | 88613 | 107728
7 | 23:56.29 | 5:01.70 | 107729 | 130373
8 | 28:58.24 | 4:03.55 | 130374 | 148653
9 | 33:02.04 | 4:17.16 | 148654 | 167944
10 | 37:19.20 | 3:52.68 | 167945 | 185412
11 | 41:12.13 | 3:55.15 | 185413 | 203052
12 | 45:07.28 | 6:15.53 | 203053 | 231230
13 | 51:23.06 | 4:11.05 | 231231 | 250060
14 | 55:34.11 | 4:37.41 | 250061 | 270876
Range status and errors
Selected range
Filename M:\FLAC (bruk67)\MP3\Руки Вверх (FLAC)\2001 - Не бойся, я с тобой!\Руки Вверх - Не бойся, я с тобой!.wav
Peak level 98.8 %
Range quality 100.0 %
Test CRC 88A8A0D4
Copy CRC 88A8A0D4
Copy OK
No errors occurred
AccurateRip summary
Track 1 accurately ripped (confidence 1) [EDD0274C]
Track 2 accurately ripped (confidence 1) [91FAFFD2]
Track 3 accurately ripped (confidence 1) [79F1918E]
Track 4 accurately ripped (confidence 1) [42ECDFBF]
Track 5 accurately ripped (confidence 1) [0F2A3CFE]
Track 6 accurately ripped (confidence 1) [11D43C8A]
Track 7 accurately ripped (confidence 1) [E6687621]
Track 8 accurately ripped (confidence 1) [685E641E]
Track 9 accurately ripped (confidence 1) [25DE4018]
Track 10 accurately ripped (confidence 1) [04DFDBAA]
Track 11 accurately ripped (confidence 1) [B2DD7D12]
Track 12 accurately ripped (confidence 1) [0B94A7E5]
Track 13 accurately ripped (confidence 1) [8406E790]
Track 14 accurately ripped (confidence 1) [69594732]
All tracks accurately ripped
End of status report

Скриншот спектра частот

2001 - Маленькие девочки

Маленькие девочки Страна-производитель диска: Россия
Год издания диска: 2001
Издатель (лейбл): АРС Records
Номер по каталогу: ATCD-20-01
Продолжительность: 55:46--Треклист01. Маленькие девочки
02. 18 мне уже
03. Серёжа (dance mix)
04. Sugarbaby (How're you doin'?)
05. Ай-яй-яй
06. Доброй, Нежной, Ласковой
07. Здравствуй, это я
08. Выбирай сама
09. Алёшка
10. Не бойся, я стобой
11. Только для тебя (feat.Акула)
12.I van crazy driver (club amsterdam mix)
13. Баю-бай
14. Так тебе и надо
--

Лог создания рипа

Exact Audio Copy V0.99 prebeta 5 from 4. May 2009
EAC extraction logfile from 17. November 2012, 23:51
Руки Вверх / Маленькие девочки
Used drive : PIONEER DVD-RW DVR-212 Adapter: 8 ID: 0
Read mode : Secure
Utilize accurate stream : Yes
Defeat audio cache : Yes
Make use of C2 pointers : No
Read offset correction : 48
Overread into Lead-In and Lead-Out : No
Fill up missing offset samples with silence : Yes
Delete leading and trailing silent blocks : No
Null samples used in CRC calculations : Yes
Used interface : Installed external ASPI interface
Used output format : Internal WAV Routines
Sample format : 44.100 Hz; 16 Bit; Stereo
TOC of the extracted CD
Track | Start | Length | Start sector | End sector
---------------------------------------------------------
1 | 0:00.00 | 4:26.25 | 0 | 19974
2 | 4:26.25 | 4:05.06 | 19975 | 38355
3 | 8:31.31 | 4:13.37 | 38356 | 57367
4 | 12:44.68 | 3:36.07 | 57368 | 73574
5 | 16:21.00 | 3:50.49 | 73575 | 90873
6 | 20:11.49 | 3:42.03 | 90874 | 107526
7 | 23:53.52 | 3:46.69 | 107527 | 124545
8 | 27:40.46 | 3:44.04 | 124546 | 141349
9 | 31:24.50 | 3:25.65 | 141350 | 156789
10 | 34:50.40 | 3:53.20 | 156790 | 174284
11 | 38:43.60 | 4:01.61 | 174285 | 192420
12 | 42:45.46 | 4:40.33 | 192421 | 213453
13 | 47:26.04 | 4:31.07 | 213454 | 233785
14 | 51:57.11 | 3:48.32 | 233786 | 250917
Range status and errors
Selected range
Filename M:\FLAC (bruk67)\MP3\Руки Вверх (FLAC)\2001 - Маленькие девочки\Руки Вверх - Маленькие девочки.wav
Peak level 99.1 %
Range quality 99.9 %
Test CRC 13E98DB7
Copy CRC 13E98DB7
Copy OK
No errors occurred
AccurateRip summary
Track 1 accurately ripped (confidence 2) [E300E5E7]
Track 2 accurately ripped (confidence 2) [17FB3239]
Track 3 accurately ripped (confidence 2) [B59655C9]
Track 4 accurately ripped (confidence 2) [CB41535A]
Track 5 accurately ripped (confidence 2) [37169020]
Track 6 accurately ripped (confidence 2) [2D6307D3]
Track 7 accurately ripped (confidence 2) [043E6CB9]
Track 8 accurately ripped (confidence 2) [A60848B7]
Track 9 accurately ripped (confidence 2) [DA1E441F]
Track 10 accurately ripped (confidence 2) [4CBBF7FF]
Track 11 accurately ripped (confidence 2) [E76D9C04]
Track 12 accurately ripped (confidence 2) [30DB3D0C]
Track 13 accurately ripped (confidence 2) [C7F21712]
Track 14 accurately ripped (confidence 2) [6ECD9EED]
All tracks accurately ripped
End of status report

Скриншот спектра частот

2001 - Огонь

Огонь Страна-производитель диска: Россия
Год издания диска: 2001
Издатель (лейбл): J.S.P. Company
Номер по каталогу: 010 266-2
Продолжительность: 47:34--Треклист01. Вдох
02. Энергия нового поколения
03. DJ
04. Огонь
05. Песенка №5
06. Хороший день
07. Я не хочу тебя терять
08. Ты осталась одна
09. Мега-полис
10. Искуственное дыхание
11. Спортлото'2002
12. Выдох
--

Лог создания рипа

Exact Audio Copy V0.99 prebeta 5 from 4. May 2009
EAC extraction logfile from 3. November 2012, 20:31
Руки Вверх / Огонь
Used drive : PIONEER DVD-RW DVR-212 Adapter: 1 ID: 0
Read mode : Secure
Utilize accurate stream : Yes
Defeat audio cache : Yes
Make use of C2 pointers : No
Read offset correction : 48
Overread into Lead-In and Lead-Out : No
Fill up missing offset samples with silence : Yes
Delete leading and trailing silent blocks : No
Null samples used in CRC calculations : Yes
Used interface : Native Win32 interface for Win NT & 2000
Used output format : Internal WAV Routines
Sample format : 44.100 Hz; 16 Bit; Stereo
TOC of the extracted CD
Track | Start | Length | Start sector | End sector
---------------------------------------------------------
1 | 0:00.00 | 1:17.10 | 0 | 5784
2 | 1:17.10 | 3:55.16 | 5785 | 23425
3 | 5:12.26 | 4:52.09 | 23426 | 45334
4 | 10:04.35 | 4:58.67 | 45335 | 67751
5 | 15:03.27 | 4:26.74 | 67752 | 87775
6 | 19:30.26 | 3:50.70 | 87776 | 105095
7 | 23:21.21 | 4:33.20 | 105096 | 125590
8 | 27:54.41 | 3:49.58 | 125591 | 142823
9 | 31:44.24 | 4:13.20 | 142824 | 161818
10 | 35:57.44 | 4:48.45 | 161819 | 183463
11 | 40:46.14 | 5:17.38 | 183464 | 207276
12 | 46:03.52 | 1:30.00 | 207277 | 214026
Range status and errors
Selected range
Filename M:\FLAC (bruk67)\MP3\Руки Вверх (FLAC)\2001 - Огонь\Руки Вверх - Огонь.wav
Peak level 99.4 %
Range quality 100.0 %
Test CRC E50455D9
Copy CRC E50455D9
Copy OK
No errors occurred
AccurateRip summary
Track 1 accurately ripped (confidence 1) [C2C8D814]
Track 2 accurately ripped (confidence 1) [12470400]
Track 3 accurately ripped (confidence 1) [D749C521]
Track 4 accurately ripped (confidence 1) [D99F2DFB]
Track 5 accurately ripped (confidence 1) [51CC53E9]
Track 6 accurately ripped (confidence 1) [BAE2C760]
Track 7 accurately ripped (confidence 1) [E1BA7672]
Track 8 accurately ripped (confidence 1) [3279EAC8]
Track 9 accurately ripped (confidence 1) [66C51D6C]
Track 10 accurately ripped (confidence 1) [8351EC2A]
Track 11 accurately ripped (confidence 1) [453BC1BE]
Track 12 not present in database
11 track(s) accurately ripped
1 track(s) not present in the AccurateRip database
Some tracks could not be verified as accurate
End of status report

Скриншот спектра частот

2002 - Конец попсе, танцуют все

Конец попсе, танцуют все Страна-производитель диска: Россия
Год издания диска: 2002
Издатель (лейбл): АРС Records
Номер по каталогу: ATCD-21-02
Продолжительность: 49:34--Треклист01. Стоят подружки
02. Он тебя целует
03. Танцуют все
04. Замужем
05. Девушки Востока
06. Уходи
07. Выпускной
08. Нетелефонный разговор
09. Песенка №5
10. Половинка любви
11. Маленькие девочки
12. Свадьба
--

Лог создания рипа

Exact Audio Copy V0.99 prebeta 5 from 4. May 2009
EAC extraction logfile from 3. November 2012, 22:22
Руки Вверх / Конец попсе, танцуют все
Used drive : PIONEER DVD-RW DVR-212 Adapter: 1 ID: 0
Read mode : Secure
Utilize accurate stream : Yes
Defeat audio cache : Yes
Make use of C2 pointers : No
Read offset correction : 48
Overread into Lead-In and Lead-Out : No
Fill up missing offset samples with silence : Yes
Delete leading and trailing silent blocks : No
Null samples used in CRC calculations : Yes
Used interface : Native Win32 interface for Win NT & 2000
Used output format : Internal WAV Routines
Sample format : 44.100 Hz; 16 Bit; Stereo
TOC of the extracted CD
Track | Start | Length | Start sector | End sector
---------------------------------------------------------
1 | 0:00.17 | 4:46.73 | 17 | 21539
2 | 4:47.15 | 4:03.13 | 21540 | 39777
3 | 8:50.28 | 3:48.74 | 39778 | 56951
4 | 12:39.27 | 4:02.45 | 56952 | 75146
5 | 16:41.72 | 4:06.35 | 75147 | 93631
6 | 20:48.32 | 3:53.41 | 93632 | 111147
7 | 24:41.73 | 3:49.45 | 111148 | 128367
8 | 28:31.43 | 3:46.52 | 128368 | 145369
9 | 32:18.20 | 4:14.34 | 145370 | 164453
10 | 36:32.54 | 4:14.04 | 164454 | 183507
11 | 40:46.58 | 4:25.69 | 183508 | 203451
12 | 45:12.52 | 4:21.57 | 203452 | 223083
Range status and errors
Selected range
Filename M:\FLAC (bruk67)\MP3\Руки Вверх (FLAC)\2002 - Конец попсе, танцуют все\Руки Вверх - Конец попсе, танцуют все.wav
Peak level 98.8 %
Range quality 100.0 %
Test CRC A6E5B31E
Copy CRC A6E5B31E
Copy OK
No errors occurred
AccurateRip summary
Track 1 accurately ripped (confidence 7) [51A75255]
Track 2 accurately ripped (confidence 7) [64A68A8A]
Track 3 accurately ripped (confidence 6) [5B3913C0]
Track 4 accurately ripped (confidence 6) [00BD3184]
Track 5 accurately ripped (confidence 6) [9CC12FF6]
Track 6 accurately ripped (confidence 6) [E91CFC0B]
Track 7 accurately ripped (confidence 6) [499D185D]
Track 8 accurately ripped (confidence 6) [04EA4324]
Track 9 accurately ripped (confidence 6) [47546CDE]
Track 10 accurately ripped (confidence 6) [51C4AB99]
Track 11 accurately ripped (confidence 6) [9371E8A4]
Track 12 accurately ripped (confidence 6) [F08A4F06]
All tracks accurately ripped
End of status report

Скриншот спектра частот

2003 - Мне с тобою хорошо

Мне с тобою хорошо Страна-производитель диска: Россия
Год издания диска: 2003
Издатель (лейбл): АРС Records
Номер по каталогу: АРС 108-03
Продолжительность: 50:29--Треклист01. Милая моя
02. Сделать тебя взрослой
03. Детская
04. Сахалин
05. Don't Stop (feat. DJ Rodik-Off)
06. Я буду ждать
07. Набираю номер
08. Убегаю
09. Песенка №6
10. Yalla (Club mix)
11. Не забуду
12. Мне с тобою хорошо
--

Лог создания рипа

Exact Audio Copy V0.99 prebeta 5 from 4. May 2009
EAC extraction logfile from 3. November 2012, 23:40
Руки Вверх / Мне с тобою хорошо
Used drive : PIONEER DVD-RW DVR-212 Adapter: 1 ID: 0
Read mode : Secure
Utilize accurate stream : Yes
Defeat audio cache : Yes
Make use of C2 pointers : No
Read offset correction : 48
Overread into Lead-In and Lead-Out : No
Fill up missing offset samples with silence : Yes
Delete leading and trailing silent blocks : No
Null samples used in CRC calculations : Yes
Used interface : Native Win32 interface for Win NT & 2000
Used output format : Internal WAV Routines
Sample format : 44.100 Hz; 16 Bit; Stereo
TOC of the extracted CD
Track | Start | Length | Start sector | End sector
---------------------------------------------------------
1 | 0:00.17 | 3:54.20 | 17 | 17586
2 | 3:54.37 | 3:41.34 | 17587 | 34195
3 | 7:35.71 | 3:56.56 | 34196 | 51951
4 | 11:32.52 | 3:41.73 | 51952 | 68599
5 | 15:14.50 | 4:06.57 | 68600 | 87106
6 | 19:21.32 | 4:13.18 | 87107 | 106099
7 | 23:34.50 | 4:32.24 | 106100 | 126523
8 | 28:06.74 | 3:44.10 | 126524 | 143333
9 | 31:51.09 | 3:47.24 | 143334 | 160382
10 | 35:38.33 | 6:13.27 | 160383 | 188384
11 | 41:51.60 | 4:51.24 | 188385 | 210233
12 | 46:43.09 | 3:45.57 | 210234 | 227165
Range status and errors
Selected range
Filename M:\FLAC (bruk67)\MP3\Руки Вверх (FLAC)\2003 - Мне с тобою хорошо\Руки Вверх - Мне с тобою хорошо.wav
Peak level 100.0 %
Range quality 100.0 %
Test CRC B3DD44AF
Copy CRC B3DD44AF
Copy OK
No errors occurred
AccurateRip summary
Track 1 accurately ripped (confidence 2) [894241B7]
Track 2 accurately ripped (confidence 2) [80A7323C]
Track 3 accurately ripped (confidence 2) [9ED5E9CF]
Track 4 accurately ripped (confidence 2) [A01D8567]
Track 5 accurately ripped (confidence 2) [71965371]
Track 6 accurately ripped (confidence 2) [55C4FA01]
Track 7 accurately ripped (confidence 2) [05B20123]
Track 8 accurately ripped (confidence 2) [07FA71E6]
Track 9 accurately ripped (confidence 2) [64CD016D]
Track 10 accurately ripped (confidence 2) [06DEF81F]
Track 11 accurately ripped (confidence 2) [9DA3B5AE]
Track 12 accurately ripped (confidence 2) [BEEB64F3]
All tracks accurately ripped
End of status report

Скриншот спектра частот

2003 - Мне с тобою хорошо (Limited Edition)

Мне с тобою хорошо (Limited Edition) Страна-производитель диска: Россия
Год издания диска: 2003
Издатель (лейбл): АРС Records
Номер по каталогу: АРС 108-03
Продолжительность: 50:25--Треклист01. Милая моя
02. Сделать тебя взрослой
03. Детская
04. Сахалин
05. Don't Stop (ft. DJ Rodik-Off)
06. Я буду ждать
07. Набираю номер
08. Убегаю
09. Песенка №6
10. Yalla (Club mix)
11. Не забуду
12. Мне с тобою хорошо
13. Детская + Мне с тобою хорошо (bonus videos)
--

Лог создания рипа

Exact Audio Copy V0.99 prebeta 5 from 4. May 2009
EAC extraction logfile from 4. November 2012, 0:57
Руки Вверх / Мне с тобою хорошо (Limited Edition)
Used drive : PIONEER DVD-RW DVR-212 Adapter: 1 ID: 0
Read mode : Secure
Utilize accurate stream : Yes
Defeat audio cache : Yes
Make use of C2 pointers : No
Read offset correction : 48
Overread into Lead-In and Lead-Out : No
Fill up missing offset samples with silence : Yes
Delete leading and trailing silent blocks : No
Null samples used in CRC calculations : Yes
Used interface : Native Win32 interface for Win NT & 2000
Used output format : Internal WAV Routines
Sample format : 44.100 Hz; 16 Bit; Stereo
TOC of the extracted CD
Track | Start | Length | Start sector | End sector
---------------------------------------------------------
1 | 0:00.00 | 3:53.73 | 0 | 17547
2 | 3:53.73 | 3:41.09 | 17548 | 34131
3 | 7:35.07 | 3:56.36 | 34132 | 51867
4 | 11:31.43 | 3:41.54 | 51868 | 68496
5 | 15:13.22 | 4:06.29 | 68497 | 86975
6 | 19:19.51 | 4:12.74 | 86976 | 105949
7 | 23:32.50 | 4:32.06 | 105950 | 126355
8 | 28:04.56 | 3:43.65 | 126356 | 143145
9 | 31:48.46 | 3:47.04 | 143146 | 160174
10 | 35:35.50 | 6:13.08 | 160175 | 188157
11 | 41:48.58 | 4:51.04 | 188158 | 209986
12 | 46:39.62 | 3:45.40 | 209987 | 226901
13 | 52:57.27 | 19:20.13 | 238302 | 325314
Range status and errors
Selected range
Filename M:\FLAC (bruk67)\MP3\Руки Вверх (FLAC)\2003 - Мне с тобою хорошо (подарочное издание)\Руки Вверх - Мне с тобою хорошо (Limited Edition).wav
Peak level 100.0 %
Range quality 100.0 %
Test CRC B5BB303B
Copy CRC B5BB303B
Copy OK
No errors occurred
AccurateRip summary
Track 1 not present in database
Track 2 not present in database
Track 3 not present in database
Track 4 not present in database
Track 5 not present in database
Track 6 not present in database
Track 7 not present in database
Track 8 not present in database
Track 9 not present in database
Track 10 not present in database
Track 11 not present in database
Track 12 not present in database
None of the tracks are present in the AccurateRip database
End of status report

Скриншот спектра частот

Детская (video)

Продолжительность: 3:31
Видео: DivX 5 352x288 25.00fps [00) V]
Аудио: PCM 22050Hz stereo 705Kbps [01) A]

Скриншоты

Мне с тобою хорошо (video)

Продолжительность: 3:39
Видео: DivX 5 352x288 25.00fps [00) V]
Аудио: PCM 22050Hz stereo 705Kbps [01) A]

Скриншоты

2004 - А девочкам так холодно...

А девочкам так холодно Страна-производитель диска: Россия
Год издания диска: 2004
Издатель (лейбл): J.S.P. Company
Номер по каталогу: 010 300-2
Продолжительность: 51:38--Треклист01. Интро
02. Нелюбимая
03. А девочкам так холодно (feat. Online)
04. 18 мне уже (feat. DJ Vital и проект 3 желания)
05. Танцуй (быстро)
06. Я не отдам тебя никому (feat. Филипп Киркоров)
07. Атаман
08. Эй, парни!
09. Ну, где же вы девчонки? (feat. Отпетые мошенники)
10. Омут (feat. Николай Басков)
11. Крошка моя (feat. Супер Банда)
12. Андрюшка (feat. Иванушки Int.)
13. Наталья Петровна (feat. Pulsedriver)
--

Лог создания рипа

Exact Audio Copy V0.99 prebeta 5 from 4. May 2009
EAC extraction logfile from 4. November 2012, 2:19
Руки Вверх / А девочкам так холодно...
Used drive : PIONEER DVD-RW DVR-212 Adapter: 1 ID: 0
Read mode : Secure
Utilize accurate stream : Yes
Defeat audio cache : Yes
Make use of C2 pointers : No
Read offset correction : 48
Overread into Lead-In and Lead-Out : No
Fill up missing offset samples with silence : Yes
Delete leading and trailing silent blocks : No
Null samples used in CRC calculations : Yes
Used interface : Native Win32 interface for Win NT & 2000
Used output format : Internal WAV Routines
Sample format : 44.100 Hz; 16 Bit; Stereo
TOC of the extracted CD
Track | Start | Length | Start sector | End sector
---------------------------------------------------------
1 | 0:00.00 | 0:33.68 | 0 | 2542
2 | 0:33.68 | 4:16.64 | 2543 | 21806
3 | 4:50.57 | 3:23.26 | 21807 | 37057
4 | 8:14.08 | 4:43.36 | 37058 | 58318
5 | 12:57.44 | 3:44.49 | 58319 | 75167
6 | 16:42.18 | 5:54.66 | 75168 | 101783
7 | 22:37.09 | 3:59.16 | 101784 | 119724
8 | 26:36.25 | 3:27.68 | 119725 | 135317
9 | 30:04.18 | 5:46.64 | 135318 | 161331
10 | 35:51.07 | 4:46.67 | 161332 | 182848
11 | 40:37.74 | 3:44.27 | 182849 | 199675
12 | 44:22.26 | 3:21.29 | 199676 | 214779
13 | 47:43.55 | 3:54.37 | 214780 | 232366
Range status and errors
Selected range
Filename M:\FLAC (bruk67)\MP3\Руки Вверх (FLAC)\2004 - А девочкам так холодно\Руки Вверх - А девочкам так холодно....wav
Peak level 98.8 %
Range quality 100.0 %
Test CRC 18FF3D49
Copy CRC 18FF3D49
Copy OK
No errors occurred
AccurateRip summary
Track 1 not present in database
Track 2 not present in database
Track 3 not present in database
Track 4 not present in database
Track 5 not present in database
Track 6 not present in database
Track 7 not present in database
Track 8 not present in database
Track 9 not present in database
Track 10 not present in database
Track 11 not present in database
Track 12 not present in database
Track 13 not present in database
None of the tracks are present in the AccurateRip database
End of status report

Скриншот спектра частот

2005 - Natasha (Maxi-Single)

Natasha (Maxi-Single) Страна-производитель диска: Germany
Год издания диска: 2005
Издатель (лейбл): ZYX Music
Номер по каталогу: ZYX 9926-8
Продолжительность: 19:17--Треклист01 Natasha
02 Natasha (DJ Isy B's Raggaetone Remix Long Cut)
03 Fuc*in Rock 'n' Roll
04 Natasha (English Version)
--

Лог создания рипа

Exact Audio Copy V0.99 prebeta 5 from 4. May 2009
EAC extraction logfile from 21. November 2012, 7:05
Ruki Vverh / Natasha (Maxi-Single)
Used drive : PIONEER DVD-RW DVR-212 Adapter: 8 ID: 0
Read mode : Secure
Utilize accurate stream : Yes
Defeat audio cache : Yes
Make use of C2 pointers : No
Read offset correction : 48
Overread into Lead-In and Lead-Out : No
Fill up missing offset samples with silence : Yes
Delete leading and trailing silent blocks : No
Null samples used in CRC calculations : Yes
Used interface : Installed external ASPI interface
Used output format : Internal WAV Routines
Sample format : 44.100 Hz; 16 Bit; Stereo
TOC of the extracted CD
Track | Start | Length | Start sector | End sector
---------------------------------------------------------
1 | 0:00.00 | 4:41.36 | 0 | 21110
2 | 4:41.36 | 5:09.61 | 21111 | 44346
3 | 9:51.22 | 4:44.73 | 44347 | 65719
4 | 14:36.20 | 4:40.56 | 65720 | 86775
Range status and errors
Selected range
Filename M:\FLAC (bruk67)\MP3\Руки Вверх (FLAC)\2005 - Natasha (Maxi-Single)\Ruki Vverh - Natasha (Maxi-Single).wav
Peak level 98.8 %
Range quality 100.0 %
Test CRC FEAC463F
Copy CRC FEAC463F
Copy OK
No errors occurred
AccurateRip summary
Track 1 not present in database
Track 2 not present in database
Track 3 not present in database
Track 4 not present in database
None of the tracks are present in the AccurateRip database
End of status report

Скриншот спектра частот

2005 - Fuc'in' Rock 'n' Roll

Fuc'in' Rock 'n' Roll Страна-производитель диска: Россия
Год издания диска: 2005
Издатель (лейбл): Монолит
Номер по каталогу: MT 10879-112-1
Продолжительность: 50:51--Треклист01. Наташа
02. Fuc'in' Rock 'N' Roll
03. Эни-бени
04. Отель
05. Прошу не молчи
06. Больно
07. Институтка
08. Девочки колхозницы
09. Ray Charles vs. Руки Вверх - Shake your Tailfeather
10. Расстались
11. Лето в стиле Samba
12. Наташа (European dance mix)
--

Лог создания рипа

Exact Audio Copy V0.99 prebeta 5 from 4. May 2009
EAC extraction logfile from 10. November 2012, 22:28
Руки Вверх / Fuc'in' Rock 'N' Roll
Used drive : PIONEER DVD-RW DVR-212 Adapter: 8 ID: 0
Read mode : Secure
Utilize accurate stream : Yes
Defeat audio cache : Yes
Make use of C2 pointers : No
Read offset correction : 48
Overread into Lead-In and Lead-Out : No
Fill up missing offset samples with silence : Yes
Delete leading and trailing silent blocks : No
Null samples used in CRC calculations : Yes
Used interface : Installed external ASPI interface
Used output format : Internal WAV Routines
Sample format : 44.100 Hz; 16 Bit; Stereo
TOC of the extracted CD
Track | Start | Length | Start sector | End sector
---------------------------------------------------------
1 | 0:00.17 | 4:41.56 | 17 | 21147
2 | 4:41.73 | 4:45.27 | 21148 | 42549
3 | 9:27.25 | 3:47.41 | 42550 | 59615
4 | 13:14.66 | 4:23.30 | 59616 | 79370
5 | 17:38.21 | 3:44.49 | 79371 | 96219
6 | 21:22.70 | 4:01.64 | 96220 | 114358
7 | 25:24.59 | 4:51.58 | 114359 | 136241
8 | 30:16.42 | 3:58.73 | 136242 | 154164
9 | 34:15.40 | 3:50.28 | 154165 | 171442
10 | 38:05.68 | 4:10.13 | 171443 | 190205
11 | 42:16.06 | 4:37.10 | 190206 | 210990
12 | 46:53.16 | 3:58.21 | 210991 | 228861
Range status and errors
Selected range
Filename M:\FLAC (bruk67)\MP3\Руки Вверх (FLAC)\2005 - Fuc'in' Rock 'n' Roll\Руки Вверх - Fuc'in' Rock 'N' Roll.wav
Peak level 98.8 %
Range quality 100.0 %
Test CRC 419ABC48
Copy CRC 419ABC48
Copy OK
No errors occurred
AccurateRip summary
Track 1 accurately ripped (confidence 1) [C84F4CE8]
Track 2 accurately ripped (confidence 1) [5312C647]
Track 3 accurately ripped (confidence 1) [3896CC94]
Track 4 accurately ripped (confidence 1) [3A8A84BF]
Track 5 accurately ripped (confidence 1) [8F457168]
Track 6 accurately ripped (confidence 1) [F55E6197]
Track 7 accurately ripped (confidence 1) [5689F624]
Track 8 accurately ripped (confidence 1) [D7B3094E]
Track 9 accurately ripped (confidence 1) [8032F402]
Track 10 accurately ripped (confidence 1) [9EE31D23]
Track 11 accurately ripped (confidence 1) [3A7FB71B]
Track 12 accurately ripped (confidence 1) [75E73ED2]
All tracks accurately ripped
End of status report

Скриншот спектра частот

2005 - Позови меня, не гони меня... (Избранные песни)

Позови меня, не гони меня... (Избранные песни) Страна-производитель диска: Россия
Год издания диска: 2005
Издатель (лейбл): J.S.P. Company
Номер по каталогу: 010 320-2
Продолжительность: 44:28--Треклист01. Казанова/Фактор 2
02. Последний поцелуй
03. Полечу за тобой (original track)
04. Я не отдам тебя никому
05. Андрюшка
06. Московская тоска
07. Десять лет
08. Нежность
09. Танцуй медленно
10. Ты осталась одна
11. Я жду (1996)
12. Студент (видеоклип)
--

Лог создания рипа

Exact Audio Copy V0.99 prebeta 5 from 4. May 2009
EAC extraction logfile from 7. November 2012, 23:01
Руки Вверх / Позови меня, не гони меня... (Избранные песни)
Used drive : PIONEER DVD-RW DVR-212 Adapter: 8 ID: 0
Read mode : Secure
Utilize accurate stream : Yes
Defeat audio cache : Yes
Make use of C2 pointers : No
Read offset correction : 48
Overread into Lead-In and Lead-Out : No
Fill up missing offset samples with silence : Yes
Delete leading and trailing silent blocks : No
Null samples used in CRC calculations : Yes
Used interface : Installed external ASPI interface
Used output format : Internal WAV Routines
Sample format : 44.100 Hz; 16 Bit; Stereo
TOC of the extracted CD
Track | Start | Length | Start sector | End sector
---------------------------------------------------------
1 | 0:00.00 | 3:18.18 | 0 | 14867
2 | 3:18.18 | 3:50.42 | 14868 | 32159
3 | 7:08.60 | 4:36.05 | 32160 | 52864
4 | 11:44.65 | 4:42.24 | 52865 | 74038
5 | 16:27.14 | 3:19.19 | 74039 | 88982
6 | 19:46.33 | 3:59.04 | 88983 | 106911
7 | 23:45.37 | 4:17.13 | 106912 | 126199
8 | 28:02.50 | 3:42.64 | 126200 | 142913
9 | 31:45.39 | 3:51.73 | 142914 | 160311
10 | 35:37.37 | 3:50.01 | 160312 | 177562
11 | 39:27.38 | 5:00.29 | 177563 | 200091
12 | 46:59.67 | 4:38.61 | 211492 | 232402
Range status and errors
Selected range
Filename M:\FLAC (bruk67)\MP3\Руки Вверх (FLAC)\2005 - Позови меня, не гони меня... (Избранные песни)\Руки Вверх - Позови меня, не гони меня... (Избранные песни).wav
Peak level 98.8 %
Range quality 100.0 %
Test CRC FD8BA0A9
Copy CRC FD8BA0A9
Copy OK
No errors occurred
AccurateRip summary
Track 1 accurately ripped (confidence 1) [AB28D20A]
Track 2 accurately ripped (confidence 1) [CD815C28]
Track 3 accurately ripped (confidence 1) [2F883184]
Track 4 accurately ripped (confidence 1) [5081C9B4]
Track 5 accurately ripped (confidence 1) [B335422B]
Track 6 accurately ripped (confidence 1) [9C3DB673]
Track 7 accurately ripped (confidence 1) [3234C901]
Track 8 accurately ripped (confidence 1) [922AE5BA]
Track 9 accurately ripped (confidence 1) [DDF427A5]
Track 10 accurately ripped (confidence 1) [75294190]
Track 11 accurately ripped (confidence 1) [3C543F02]
All tracks accurately ripped
End of status report

Скриншот спектра частот

Студент (видеоклип)

Продолжительность: 3:26
Видео: Windows Media Video 9 640x480 25.00fps 1372Kbps [Raw Video 1]
Аудио: Windows Media Audio 44100Hz stereo 128Kbps [Raw Audio 0]
Аудио: FLAC 44100Hz stereo 1411Kbps [Output]

Скриншоты

2006 - Золотой альбом

Золотой альбом Страна-производитель диска: Россия
Год издания диска: 2006
Издатель (лейбл): Монолит Рекордс
Номер по каталогу: МТ 715391-044-1
Продолжительность: 1:14:49--Треклист01. Лишь о тебе мечтая
02. Чужие губы
03. Назови его как меня (Сынишка)
04. Прости
05. Здравствуй, это я
06. Он не любит тебя
07. Не бойся, я с тобой
08. Он не я
09. Доброй, нежной, ласковой
10. Ай-яй-яй
11. Маленькие девочки
12. Уходи
13. Он тебя целует
14. Стоят подружки
15. Детская
16. Мне с тобою хорошо
17. Отель
18. Наташа
--

Лог создания рипа

Exact Audio Copy V0.99 prebeta 5 from 4. May 2009
EAC extraction logfile from 7. November 2012, 23:46
Руки Вверх / Золотой альбом
Used drive : PIONEER DVD-RW DVR-212 Adapter: 8 ID: 0
Read mode : Secure
Utilize accurate stream : Yes
Defeat audio cache : Yes
Make use of C2 pointers : No
Read offset correction : 48
Overread into Lead-In and Lead-Out : No
Fill up missing offset samples with silence : Yes
Delete leading and trailing silent blocks : No
Null samples used in CRC calculations : Yes
Used interface : Installed external ASPI interface
Used output format : Internal WAV Routines
Sample format : 44.100 Hz; 16 Bit; Stereo
TOC of the extracted CD
Track | Start | Length | Start sector | End sector
---------------------------------------------------------
1 | 0:00.00 | 5:16.01 | 0 | 23700
2 | 5:16.01 | 3:58.66 | 23701 | 41616
3 | 9:14.67 | 4:37.19 | 41617 | 62410
4 | 13:52.11 | 4:05.27 | 62411 | 80812
5 | 17:57.38 | 3:42.60 | 80813 | 97522
6 | 21:40.23 | 4:11.13 | 97523 | 116360
7 | 25:51.36 | 3:48.70 | 116361 | 133530
8 | 29:40.31 | 4:09.49 | 133531 | 152254
9 | 33:50.05 | 3:39.08 | 152255 | 168687
10 | 37:29.13 | 3:46.44 | 168688 | 185681
11 | 41:15.57 | 4:21.30 | 185682 | 205286
12 | 45:37.12 | 3:50.46 | 205287 | 222582
13 | 49:27.58 | 3:59.47 | 222583 | 240554
14 | 53:27.30 | 4:42.45 | 240555 | 261749
15 | 58:10.00 | 3:54.32 | 261750 | 279331
16 | 62:04.32 | 3:45.07 | 279332 | 296213
17 | 65:49.39 | 4:19.42 | 296214 | 315680
18 | 70:09.06 | 4:39.73 | 315681 | 336678
Range status and errors
Selected range
Filename M:\FLAC (bruk67)\MP3\Руки Вверх (FLAC)\2006 - Золотой альбом\Руки Вверх - Золотой альбом.wav
Peak level 100.0 %
Range quality 100.0 %
Test CRC CF153892
Copy CRC CF153892
Copy OK
No errors occurred
AccurateRip summary
Track 1 accurately ripped (confidence 1) [5FA75EC1]
Track 2 accurately ripped (confidence 1) [4E928396]
Track 3 accurately ripped (confidence 1) [549FE410]
Track 4 accurately ripped (confidence 1) [61E52A1C]
Track 5 accurately ripped (confidence 1) [6D130D9D]
Track 6 accurately ripped (confidence 1) [5DAD01FA]
Track 7 accurately ripped (confidence 1) [7AB0D951]
Track 8 accurately ripped (confidence 1) [67F2A682]
Track 9 accurately ripped (confidence 1) [FF92324D]
Track 10 accurately ripped (confidence 1) [421758E7]
Track 11 accurately ripped (confidence 1) [7AE89ED0]
Track 12 accurately ripped (confidence 1) [89AA9374]
Track 13 accurately ripped (confidence 1) [383C1C90]
Track 14 accurately ripped (confidence 1) [CF483EF0]
Track 15 accurately ripped (confidence 1) [407FF50A]
Track 16 accurately ripped (confidence 1) [DD3B229B]
Track 17 accurately ripped (confidence 1) [D9A885C1]
Track 18 accurately ripped (confidence 1) [B4D77EB8]
All tracks accurately ripped
End of status report

Скриншот спектра частот

2009 - Новая Коллекция. Часть 1

Новая Коллекция. Часть 1 Страна-производитель диска: Россия
Год издания диска: 2009
Издатель (лейбл): Монолит
Номер по каталогу: МТ 00041-018-1
Продолжительность: 1:18:35--Треклист01. Крошка моя
02. Маленькие девочки
03. Прошу, не молчи
04. Здравствуй, это я
05. Ну где же вы, девчонки?
06. Джимми
07. Только для тебя (совм. с Акулой)
08. Не бойся, я с тобой
09. Отель
10. Баю-бай
11. Половинка любви
12. Уходи
13. Назови его, как меня (Сынишка)
14. Замужем
15. Он не я
16. Расстались
17. Он тебя целует
18. Так тебе и надо
19. Алёшка
--

Лог создания рипа

Exact Audio Copy V0.99 prebeta 5 from 4. May 2009
EAC extraction logfile from 10. January 2013, 0:59
Руки Вверх / Новая Коллекция. Часть 1
Used drive : PIONEER DVD-RW DVR-212 Adapter: 1 ID: 0
Read mode : Secure
Utilize accurate stream : Yes
Defeat audio cache : Yes
Make use of C2 pointers : No
Read offset correction : 48
Overread into Lead-In and Lead-Out : No
Fill up missing offset samples with silence : Yes
Delete leading and trailing silent blocks : No
Null samples used in CRC calculations : Yes
Used interface : Native Win32 interface for Win NT & 2000
Used output format : Internal WAV Routines
Sample format : 44.100 Hz; 16 Bit; Stereo
TOC of the extracted CD
Track | Start | Length | Start sector | End sector
---------------------------------------------------------
1 | 0:00.00 | 4:09.67 | 0 | 18741
2 | 4:09.67 | 4:24.09 | 18742 | 38550
3 | 8:34.01 | 3:44.30 | 38551 | 55380
4 | 12:18.31 | 3:45.15 | 55381 | 72270
5 | 16:03.46 | 4:39.24 | 72271 | 93219
6 | 20:42.70 | 4:43.47 | 93220 | 114491
7 | 25:26.42 | 4:01.34 | 114492 | 132600
8 | 29:28.01 | 3:52.47 | 132601 | 150047
9 | 33:20.48 | 4:21.17 | 150048 | 169639
10 | 37:41.65 | 4:28.44 | 169640 | 189783
11 | 42:10.34 | 4:13.19 | 189784 | 208777
12 | 46:23.53 | 3:53.36 | 208778 | 226288
13 | 50:17.14 | 4:39.33 | 226289 | 247246
14 | 54:56.47 | 4:01.66 | 247247 | 265387
15 | 58:58.38 | 4:12.73 | 265388 | 284360
16 | 63:11.36 | 4:09.67 | 284361 | 303102
17 | 67:21.28 | 4:02.63 | 303103 | 321315
18 | 71:24.16 | 3:47.53 | 321316 | 338393
19 | 75:11.69 | 3:23.16 | 338394 | 353634
Range status and errors
Selected range
Filename M:\FLAC (bruk67)\MP3\Руки Вверх (FLAC)\2009 - Новая Коллекция. Часть 1\Руки Вверх - Новая Коллекция. Часть 1.wav
Peak level 98.8 %
Range quality 99.9 %
Test CRC F3ABF76D
Copy CRC F3ABF76D
Copy OK
No errors occurred
AccurateRip summary
Track 1 cannot be verified as accurate (confidence 1) [CC7BB8A1], AccurateRip returned [BBA34E79]
Track 2 accurately ripped (confidence 1) [8E440151]
Track 3 accurately ripped (confidence 1) [63619760]
Track 4 accurately ripped (confidence 1) [773E0153]
Track 5 accurately ripped (confidence 1) [E3BBC76D]
Track 6 accurately ripped (confidence 1) [80B33EA1]
Track 7 accurately ripped (confidence 1) [347BB134]
Track 8 accurately ripped (confidence 1) [0AC48C4B]
Track 9 accurately ripped (confidence 1) [BA9C6EDD]
Track 10 accurately ripped (confidence 1) [B6ACF9E2]
Track 11 accurately ripped (confidence 1) [39C823FC]
Track 12 accurately ripped (confidence 1) [B1B98E26]
Track 13 accurately ripped (confidence 1) [E016F909]
Track 14 accurately ripped (confidence 1) [72EEE319]
Track 15 accurately ripped (confidence 1) [38D64CC6]
Track 16 accurately ripped (confidence 1) [85521AE1]
Track 17 accurately ripped (confidence 1) [C1BB60EF]
Track 18 accurately ripped (confidence 1) [D5BBDAC3]
Track 19 accurately ripped (confidence 1) [571FA25C]
18 track(s) accurately ripped
1 track(s) could not be verified as accurate
Some tracks could not be verified as accurate
End of status report

Скриншот спектра частот

2011 - Star-Hit. Лучшее

Star-Hit. Лучшее Страна-производитель диска: Россия
Год издания диска: 2011
Издатель (лейбл): CD Land
Номер по каталогу: CDLREC 6032011 CD
Продолжительность: 1:17:35--Треклист01 Крошка моя
02 Ай-яй-яй
03 Он тебя целует
04 Алёшка
05 Назови его, как меня (сынишка)
06 Ну, где же вы, девчонки?
07 Лишь о тебе мечтая
08 Нелюбимая
09 Пропадаешь зря
10 Доброй, нежной, ласковой
11 Прости
12 Я не отдам тебя никому
13 Чужие губы
14 Танцуй
15 Уходи
16 Наташа
17 Омут
18 18 мне уже (remix)
--

Лог создания рипа

Exact Audio Copy V0.99 prebeta 5 from 4. May 2009
EAC extraction logfile from 8. November 2012, 0:28
Руки Вверх / Star-Hit. Лучшее
Used drive : PIONEER DVD-RW DVR-212 Adapter: 8 ID: 0
Read mode : Secure
Utilize accurate stream : Yes
Defeat audio cache : Yes
Make use of C2 pointers : No
Read offset correction : 48
Overread into Lead-In and Lead-Out : No
Fill up missing offset samples with silence : Yes
Delete leading and trailing silent blocks : No
Null samples used in CRC calculations : Yes
Used interface : Installed external ASPI interface
Used output format : Internal WAV Routines
Sample format : 44.100 Hz; 16 Bit; Stereo
TOC of the extracted CD
Track | Start | Length | Start sector | End sector
---------------------------------------------------------
1 | 0:00.00 | 4:09.44 | 0 | 18718
2 | 4:09.44 | 3:49.31 | 18719 | 35924
3 | 7:59.00 | 4:00.47 | 35925 | 53971
4 | 11:59.47 | 3:24.59 | 53972 | 69330
5 | 15:24.31 | 4:38.19 | 69331 | 90199
6 | 20:02.50 | 4:39.04 | 90200 | 111128
7 | 24:41.54 | 5:17.01 | 111129 | 134904
8 | 29:58.55 | 4:23.19 | 134905 | 154648
9 | 34:21.74 | 4:53.27 | 154649 | 176650
10 | 39:15.26 | 3:40.08 | 176651 | 193158
11 | 42:55.34 | 4:07.20 | 193159 | 211703
12 | 47:02.54 | 4:45.15 | 211704 | 233093
13 | 51:47.69 | 3:59.66 | 233094 | 251084
14 | 55:47.60 | 3:43.28 | 251085 | 267837
15 | 59:31.13 | 3:51.46 | 267838 | 285208
16 | 63:22.59 | 4:40.17 | 285209 | 306225
17 | 68:03.01 | 4:48.31 | 306226 | 327856
18 | 72:51.32 | 4:43.39 | 327857 | 349120
Range status and errors
Selected range
Filename M:\FLAC (bruk67)\MP3\Руки Вверх (FLAC)\2011 - Star-Hit. Лучшее\Руки Вверх - Star-Hit. Лучшее.wav
Peak level 98.8 %
Range quality 100.0 %
Test CRC FC865F70
Copy CRC FC865F70
Copy OK
No errors occurred
AccurateRip summary
Track 1 not present in database
Track 2 not present in database
Track 3 not present in database
Track 4 not present in database
Track 5 not present in database
Track 6 not present in database
Track 7 not present in database
Track 8 not present in database
Track 9 not present in database
Track 10 not present in database
Track 11 not present in database
Track 12 not present in database
Track 13 not present in database
Track 14 not present in database
Track 15 not present in database
Track 16 not present in database
Track 17 not present in database
Track 18 not present in database
None of the tracks are present in the AccurateRip database
End of status report

Скриншот спектра частот

2012 - Открой мне дверь!

Открой мне дверь! Страна-производитель диска: Россия
Год издания диска: 2012
Издатель (лейбл): Союз
Номер по каталогу: SZCD 6096-12
Продолжительность: 57:53--Треклист01. Открой мне дверь
02. Я тебя люблю
03. Счастлив без тебя
04. Мама
05. Жаль
06. Я буду с тобой (feat. OPIUM project)
07. Миражи
08. Девочка из прошлого
09. Останься
10. Разные
11. Пам-пам-пам
12. Увидимся в снах (feat. Михаил Жуков)
13. Скажи зачем (feat. USB)
14. Девочка из прошлого (feat. St1m)
--

Лог создания рипа

Exact Audio Copy V0.99 prebeta 5 from 4. May 2009
EAC extraction logfile from 15. November 2012, 3:07
Руки Вверх / Открой мне дверь!
Used drive : PIONEER DVD-RW DVR-212 Adapter: 8 ID: 0
Read mode : Secure
Utilize accurate stream : Yes
Defeat audio cache : Yes
Make use of C2 pointers : No
Read offset correction : 48
Overread into Lead-In and Lead-Out : No
Fill up missing offset samples with silence : Yes
Delete leading and trailing silent blocks : No
Null samples used in CRC calculations : Yes
Used interface : Installed external ASPI interface
Used output format : Internal WAV Routines
Sample format : 44.100 Hz; 16 Bit; Stereo
TOC of the extracted CD
Track | Start | Length | Start sector | End sector
---------------------------------------------------------
1 | 0:00.00 | 4:04.30 | 0 | 18329
2 | 4:04.30 | 4:12.02 | 18330 | 37231
3 | 8:16.32 | 4:05.23 | 37232 | 55629
4 | 12:21.55 | 4:14.00 | 55630 | 74679
5 | 16:35.55 | 4:10.57 | 74680 | 93486
6 | 20:46.37 | 5:23.00 | 93487 | 117711
7 | 26:09.37 | 3:39.73 | 117712 | 134209
8 | 29:49.35 | 3:33.55 | 134210 | 150239
9 | 33:23.15 | 4:12.02 | 150240 | 169141
10 | 37:35.17 | 3:48.22 | 169142 | 186263
11 | 41:23.39 | 4:31.72 | 186264 | 206660
12 | 45:55.36 | 3:26.03 | 206661 | 222113
13 | 49:21.39 | 4:52.51 | 222114 | 244064
14 | 54:14.15 | 3:39.00 | 244065 | 260489
Range status and errors
Selected range
Filename M:\FLAC (bruk67)\MP3\Руки Вверх (FLAC)\2012 - Открой мне дверь!\Руки Вверх - Открой мне дверь!.wav
Peak level 100.0 %
Range quality 100.0 %
Test CRC 471CA46B
Copy CRC 471CA46B
Copy OK
No errors occurred
AccurateRip summary
Track 1 not present in database
Track 2 not present in database
Track 3 not present in database
Track 4 not present in database
Track 5 not present in database
Track 6 not present in database
Track 7 not present in database
Track 8 not present in database
Track 9 not present in database
Track 10 not present in database
Track 11 not present in database
Track 12 not present in database
Track 13 not present in database
Track 14 not present in database
None of the tracks are present in the AccurateRip database
End of status report

Скриншот спектра частот

Продолжение следует...
[Profile]  [PM] 

mario-OS

Gender: Male

Longevity: 11 years

Posts: 575

Reputation: 31 [+] [-]

Location: ...из страны, где шлюха стоит всего лишь доллар, солнце всегда и везде (с)

mario-OS · Post 30-Sep-2013 21:35 (after 56 seconds)

[Quote] 

56618765 Сергей Жуков‎

2002 - Территория

Территория Страна-производитель диска: Россия
Год издания диска: 2002
Издатель (лейбл): АРС Records/Юнатэкс
Номер по каталогу: UNCD-01-02
Продолжительность: 48:18
--Треклист
01. Пролог
02. Омут
03. Жди меня, любимая
04. Пусть тебя
05. Рядом с тобой
06. 184 сек. тишины
07. Separate
08. Территория
09. Непутевая
10. Она одна
11. Разлука (feat. Миша Веселоff)
12. Monty Funk
13. Без слёз и истерик

--

Лог создания рипа

Exact Audio Copy V0.99 prebeta 5 from 4. May 2009
EAC extraction logfile from 15. November 2012, 1:33
Сергей Жуков / Территория
Used drive : PIONEER DVD-RW DVR-212 Adapter: 8 ID: 0
Read mode : Secure
Utilize accurate stream : Yes
Defeat audio cache : Yes
Make use of C2 pointers : No
Read offset correction : 48
Overread into Lead-In and Lead-Out : No
Fill up missing offset samples with silence : Yes
Delete leading and trailing silent blocks : No
Null samples used in CRC calculations : Yes
Used interface : Installed external ASPI interface
Used output format : Internal WAV Routines
Sample format : 44.100 Hz; 16 Bit; Stereo
TOC of the extracted CD
Track | Start | Length | Start sector | End sector
---------------------------------------------------------
1 | 0:00.00 | 0:50.28 | 0 | 3777
2 | 0:50.28 | 4:48.25 | 3778 | 25402
3 | 5:38.53 | 3:29.53 | 25403 | 41130
4 | 9:08.31 | 4:25.21 | 41131 | 61026
5 | 13:33.52 | 3:19.21 | 61027 | 75972
6 | 16:52.73 | 3:04.01 | 75973 | 89773
7 | 19:56.74 | 4:08.06 | 89774 | 108379
8 | 24:05.05 | 4:07.02 | 108380 | 126906
9 | 28:12.07 | 3:51.50 | 126907 | 144281
10 | 32:03.57 | 4:53.49 | 144282 | 166305
11 | 36:57.31 | 3:15.47 | 166306 | 180977
12 | 40:13.03 | 4:26.19 | 180978 | 200946
13 | 44:39.22 | 3:38.54 | 200947 | 217350
Range status and errors
Selected range
Filename M:\FLAC (bruk67)\MP3\Руки Вверх (FLAC)\Сергей Жуков\2002 - Территория\Сергей Жуков - Территория.wav
Peak level 100.0 %
Range quality 100.0 %
Test CRC F72B6C00
Copy CRC F72B6C00
Copy OK
No errors occurred
AccurateRip summary
Track 1 accurately ripped (confidence 2) [89772153]
Track 2 accurately ripped (confidence 2) [B8F6B3A8]
Track 3 accurately ripped (confidence 2) [1230E4FF]
Track 4 accurately ripped (confidence 2) [B2A2821B]
Track 5 accurately ripped (confidence 2) [23562B9A]
Track 6 accurately ripped (confidence 2) [113930CF]
Track 7 accurately ripped (confidence 2) [AE2064A6]
Track 8 accurately ripped (confidence 2) [358460C1]
Track 9 accurately ripped (confidence 2) [F7B9CA9C]
Track 10 accurately ripped (confidence 2) [F4C7BC58]
Track 11 accurately ripped (confidence 2) [18E9120A]
Track 12 accurately ripped (confidence 2) [D7624D64]
Track 13 accurately ripped (confidence 2) [341E8A7D]
All tracks accurately ripped
End of status report

Скриншот спектра частот

2004 - Территория. Нежность

Территория. Нежность Страна-производитель диска: Россия
Год издания диска: 2004
Издатель (лейбл): JAM Group International
Номер по каталогу: 010 290-2
Продолжительность: 47:05
--Треклист
01. Нежность
02. Не ты
03. Танцуй
04. Падал снег
05. Увела
06. Я все,что ты имеешь
07. Московская тоска
08. Десять лет
09. Девушки
10. Полечу за тобою
11. Разлука (feat. Миша Веселоff)
12. Казанова

--

Лог создания рипа

Exact Audio Copy V0.99 prebeta 5 from 4. May 2009
EAC extraction logfile from 15. November 2012, 1:50
Сергей Жуков / Территория.Нежность
Used drive : PIONEER DVD-RW DVR-212 Adapter: 8 ID: 0
Read mode : Secure
Utilize accurate stream : Yes
Defeat audio cache : Yes
Make use of C2 pointers : No
Read offset correction : 48
Overread into Lead-In and Lead-Out : No
Fill up missing offset samples with silence : Yes
Delete leading and trailing silent blocks : No
Null samples used in CRC calculations : Yes
Used interface : Installed external ASPI interface
Used output format : Internal WAV Routines
Sample format : 44.100 Hz; 16 Bit; Stereo
TOC of the extracted CD
Track | Start | Length | Start sector | End sector
---------------------------------------------------------
1 | 0:00.17 | 3:45.35 | 17 | 16926
2 | 3:45.52 | 4:17.74 | 16927 | 36275
3 | 8:03.51 | 3:54.53 | 36276 | 53878
4 | 11:58.29 | 4:28.20 | 53879 | 73998
5 | 16:26.49 | 3:51.59 | 73999 | 91382
6 | 20:18.33 | 3:28.71 | 91383 | 107053
7 | 23:47.29 | 4:02.01 | 107054 | 125204
8 | 27:49.30 | 4:20.14 | 125205 | 144718
9 | 32:09.44 | 4:07.34 | 144719 | 163277
10 | 36:17.03 | 3:50.27 | 163278 | 180554
11 | 40:07.30 | 3:38.48 | 180555 | 196952
12 | 43:46.03 | 3:19.15 | 196953 | 211892
Range status and errors
Selected range
Filename M:\FLAC (bruk67)\MP3\Руки Вверх (FLAC)\Сергей Жуков\2004 - Территория.Нежность\Сергей Жуков - Территория.Нежность.wav
Peak level 99.9 %
Range quality 100.0 %
Test CRC 7CEB4661
Copy CRC 7CEB4661
Copy OK
No errors occurred
AccurateRip summary
Track 1 cannot be verified as accurate (confidence 1) [1D6DF7A4], AccurateRip returned [057B2716]
Track 2 cannot be verified as accurate (confidence 1) [72192FDC], AccurateRip returned [648115B4]
Track 3 cannot be verified as accurate (confidence 1) [6F31C347], AccurateRip returned [7C1C8B75]
Track 4 cannot be verified as accurate (confidence 1) [A3959F17], AccurateRip returned [AA481D1B]
Track 5 cannot be verified as accurate (confidence 1) [DBA0174F], AccurateRip returned [7A0BAFDD]
Track 6 cannot be verified as accurate (confidence 1) [09A4339C], AccurateRip returned [2564BA66]
Track 7 cannot be verified as accurate (confidence 1) [798A0207], AccurateRip returned [74C39BA1]
Track 8 cannot be verified as accurate (confidence 1) [CFB3C068], AccurateRip returned [3039D730]
Track 9 cannot be verified as accurate (confidence 1) [795540CF], AccurateRip returned [0DB352B5]
Track 10 cannot be verified as accurate (confidence 1) [BD12E049], AccurateRip returned [D8CAA49F]
Track 11 cannot be verified as accurate (confidence 1) [ECAD40AA], AccurateRip returned [770F7524]
Track 12 cannot be verified as accurate (confidence 1) [3A97CD84], AccurateRip returned [943C0008]
No tracks could be verified as accurate
You may have a different pressing from the one(s) in the database
End of status report

Скриншот спектра частот

2007 - В поисках нежности

В поисках нежности Страна-производитель диска: Россия
Год издания диска: 2007
Издатель (лейбл): Монолит Рекордс
Номер по каталогу: MT 715391-647-1
Продолжительность: 50:56
--Треклист
01. Спрячемся с тобой за дождём...
02. Летний вечер (feat. Михаил Жуков)
03. Ты зачем говоришь о любви
04. Капают слёзы
05. Розы
06. Девочка не спит
07. Танго
08. Я не люблю (feat. "Истерика")
09. Контачтесь (feat. 3NT)
10. Лена Смирнова (remix feat. Паша Чехов)
Bonus Tracks :
11. Капают слезы (JAVA RMX)
12. Ты зачем говоришь о любви (feat. Ева Польна)

--

Лог создания рипа

Exact Audio Copy V0.99 prebeta 5 from 4. May 2009
EAC extraction logfile from 15. November 2012, 2:12
Сергей Жуков / В поисках нежности
Used drive : PIONEER DVD-RW DVR-212 Adapter: 8 ID: 0
Read mode : Secure
Utilize accurate stream : Yes
Defeat audio cache : Yes
Make use of C2 pointers : No
Read offset correction : 48
Overread into Lead-In and Lead-Out : No
Fill up missing offset samples with silence : Yes
Delete leading and trailing silent blocks : No
Null samples used in CRC calculations : Yes
Used interface : Installed external ASPI interface
Used output format : Internal WAV Routines
Sample format : 44.100 Hz; 16 Bit; Stereo
TOC of the extracted CD
Track | Start | Length | Start sector | End sector
---------------------------------------------------------
1 | 0:00.00 | 4:38.59 | 0 | 20908
2 | 4:38.59 | 4:23.42 | 20909 | 40675
3 | 9:02.26 | 4:18.60 | 40676 | 60085
4 | 13:21.11 | 4:14.33 | 60086 | 79168
5 | 17:35.44 | 4:08.50 | 79169 | 97818
6 | 21:44.19 | 4:22.29 | 97819 | 117497
7 | 26:06.48 | 4:21.03 | 117498 | 137075
8 | 30:27.51 | 2:54.34 | 137076 | 150159
9 | 33:22.10 | 3:41.64 | 150160 | 166798
10 | 37:03.74 | 4:02.15 | 166799 | 184963
11 | 41:06.14 | 4:17.70 | 184964 | 204308
12 | 45:24.09 | 4:18.40 | 204309 | 223698
13 | 52:14.49 | 1:13.29 | 235099 | 240602
Range status and errors
Selected range
Filename M:\FLAC (bruk67)\MP3\Руки Вверх (FLAC)\Сергей Жуков\2007 - В поисках нежности\Сергей Жуков - В поисках нежности.wav
Peak level 96.2 %
Range quality 100.0 %
Test CRC 4A056D77
Copy CRC 4A056D77
Copy OK
No errors occurred
AccurateRip summary
Track 1 not present in database
Track 2 not present in database
Track 3 not present in database
Track 4 not present in database
Track 5 not present in database
Track 6 not present in database
Track 7 not present in database
Track 8 not present in database
Track 9 not present in database
Track 10 not present in database
Track 11 not present in database
Track 12 not present in database
None of the tracks are present in the AccurateRip database
End of status report

Скриншот спектра частот

2008 - Звёзды падают

Звёзды падают Страна-производитель диска: Россия
Год издания диска: 2008
Издатель (лейбл): Монолит
Номер по каталогу: МТ 715391-705-1
Продолжительность: 53:28
--Треклист
01. Звёзды падают
02. Спрячемся с тобой за дождём...
03. Летний вечер (feat. Михаил Жуков)
04. Ты зачем говоришь о любви
05. Капают слёзы
06. Розы
07. Девочка не спит
08. Танго
09. Я не люблю (feat. <Истерика>)
10. Контачтесь (feat. 3NT)
11. Лена Смирнова (remix feat. Паша Чехов)
12. Капают слёзы (JAVA RMX)
13. Ты зачем говоришь о любви (feat. Ева Польна)
Бонус:
14. Я не люблю + Девочка не спит + Капают слёзы (видеоклипы)

--

Лог создания рипа

Exact Audio Copy V0.99 prebeta 5 from 4. May 2009
EAC extraction logfile from 9. January 2013, 3:40
Сергей Жуков / Звёзды падают
Used drive : PIONEER DVD-RW DVR-212 Adapter: 1 ID: 0
Read mode : Secure
Utilize accurate stream : Yes
Defeat audio cache : Yes
Make use of C2 pointers : No
Read offset correction : 48
Overread into Lead-In and Lead-Out : No
Fill up missing offset samples with silence : Yes
Delete leading and trailing silent blocks : No
Null samples used in CRC calculations : Yes
Used interface : Native Win32 interface for Win NT & 2000
Used output format : Internal WAV Routines
Sample format : 44.100 Hz; 16 Bit; Stereo
TOC of the extracted CD
Track | Start | Length | Start sector | End sector
---------------------------------------------------------
1 | 0:00.00 | 3:45.41 | 0 | 16915
2 | 3:45.41 | 4:38.60 | 16916 | 37825
3 | 8:24.26 | 4:23.42 | 37826 | 57592
4 | 12:47.68 | 4:18.60 | 57593 | 77002
5 | 17:06.53 | 4:14.33 | 77003 | 96085
6 | 21:21.11 | 4:08.50 | 96086 | 114735
7 | 25:29.61 | 4:22.29 | 114736 | 134414
8 | 29:52.15 | 4:21.03 | 134415 | 153992
9 | 34:13.18 | 2:54.34 | 153993 | 167076
10 | 37:07.52 | 3:41.64 | 167077 | 183715
11 | 40:49.41 | 4:02.15 | 183716 | 201880
12 | 44:51.56 | 4:17.70 | 201881 | 221225
13 | 49:09.51 | 4:18.40 | 221226 | 240615
14 | 56:00.16 | 19:20.32 | 252016 | 339047
Range status and errors
Selected range
Filename M:\FLAC (bruk67)\MP3\Руки Вверх (FLAC)\Сергей Жуков\2008 - Звёзды падают\Сергей Жуков - Звёзды падают.wav
Peak level 96.2 %
Range quality 100.0 %
Test CRC 490F526E
Copy CRC 490F526E
Copy OK
No errors occurred
AccurateRip summary
Track 1 not present in database
Track 2 not present in database
Track 3 not present in database
Track 4 not present in database
Track 5 not present in database
Track 6 not present in database
Track 7 not present in database
Track 8 not present in database
Track 9 not present in database
Track 10 not present in database
Track 11 not present in database
Track 12 not present in database
Track 13 not present in database
None of the tracks are present in the AccurateRip database
End of status report

Скриншот спектра частот

Я не люблю (видеоклип&#41;

Продолжительность: :03:12
Видео: MPEG1 Video 352x288 (4:3) 25.00fps 2000Kbps [Video]
Аудио: MPEG Audio 44100Hz stereo 224Kbps [Audio]

Скриншоты

Девочка не спит (видеоклип&#41;

Продолжительность: 03:33
Видео: MPEG1 Video 352x288 (4:3) 25.00fps 1906Kbps [Video]
Аудио: MPEG Audio 44100Hz stereo 224Kbps [Audio]

Скриншоты

Капают слёзы (видеоклип&#41;

Продолжительность: 04:18
Видео: MPEG1 Video 352x288 (4:3) 25.00fps 1718Kbps [Video]
Аудио: MPEG Audio 44100Hz stereo 224Kbps [Audio]

Скриншоты

[Profile]  [PM] 
Display posts:    
Reply to topic

Current time is: 25-Feb 16:08

All times are UTC + 2



You cannot post new topics in this forum
You cannot reply to topics in this forum
You cannot edit your posts in this forum
You cannot delete your posts in this forum
You cannot vote in polls in this forum
You cannot attach files in this forum
You cannot download files in this forum