(Pop) ВИА Сливки - Дискография (5CD) - 2001-2007, FLAC (image + .cue), lossless

Reply to topic
 
Author
Message

STOJAK ®

Gender: Unknown

Longevity: 11 years

Posts: 21

Reputation: 0 [+] [-]

Location: Москва

STOJAK · Post 19-Sep-2009 07:05

[Quote] 

ВИА Сливки - Дискография (5CD)
Страна: Россия
Жанр: Pop
Год выпуска: 2001-2007
Формат: FLAC (image + .cue)
Битрейт аудио: lossless
Продолжительность: 03 час 39 мин 40 сек.
История группы:
ВИА «Сливки» - это Карина Кокс, Виктория Локтева и Евгения Синицкая.
Группа образовалась в Питере в 2000 году. За почти десятилетнюю историю «Сливкам» удалось не только воплотить в сценическую жизнь образ «своих девчонок», но и обрести уникальное звучание, найдя компромисс между отечественной поп-музыкой, западным фанком, диско и r’n’b. ВИА «Сливки» выросли из питерской команды «Discovery», специализировавшейся на клубной музыке и исполнявшей песни на английском языке. За год работы в ночных клубах проект «Discovery» завоевал популярность в северной столице. Однажды на одном из концертов группу заметил известный продюсер Евгений Орлов («Отпетые мошенники», «Гости из будущего», «Smash!!») и с его подачи «Discovery» превратились в ВИА «Сливки».
Выход дебютного альбома «Первая весна» («Арс-рекордc») символично увидел свет первой весной нового тысячелетия и разошелся огромными тиражами. Первый видеоклип «Сливок» на песню «Иногда» (made by «Братья Бледновы») получил поддержку всех центральных каналов. Также стремительно на вершины хит-парадов взлетела композиция «Ты попал», экранизированная известным клипмейкером Александром Игудиным и оператором Алексеем Тихоновым. Они также сняли клип на одну из самых удачных кавер-версий хита Аллы Пугачёвой «Куда уходит детство», вошедшую в альбом.
ДИСКОГРАФИЯ
ВИА «СЛИВКИ» 2001 [«Первая весна»]
01. "ИНОГДА (А.Аваков,А.Пушкарёв - К.Кокс)"
02. "ОСТАТЬСЯ С ТОБОЙ НАВСЕГДА (А.Аваков,А.Пушкарёв - К.Кокс)"
03. "ДВИГАЙ СВОИМ ТЕЛОМ (А.Аваков,А.Пушкарёв - К.Кокс)"
04. "ВЕСНА (А.Аваков,А.Пушкарёв - К.Кокс)"
05. "О ТЕБЕ (А.Аваков,А.Пушкарёв - К.Кокс)"
06. "КУДА УХОДИТ ДЕТСТВО (А.Зацепин - Л.Дербенёв)"
07. "ТЫ ПОПАЛ (А.Аваков,А.Пушкарёв - Г.Витке,К.Кокс)"
08. "Я ЛЮБЛЮ ТЕБЯ (А.Аваков,А.Пушкарёв - К.Кокс)"
09. "NIGHT & DAY (А.Аваков,А.Пушкарёв - К.Кокс)"
10. "ТЫ ПОПАЛ (REMIX) (А.Аваков,А.Пушкарёв - Г.Витке,К.Кокс)"
11. "ИНОГДА (REMIX) (А.Аваков,А.Пушкарёв - К.Кокс)"
"ВИА «СЛИВКИ» 2002 [«Настроение...»]
01. "Я ДРУГАЯ (А.Аваков,А.Пушкарёв - Дан Шувалов)"
02. "ЛЕТЕЛИ НЕДЕЛИ (И.Логинов - М.Крылов)"
03. "НАВЕРНОЕ (А.Аваков,А.Пушкарёв - К.Кокс,О.Попков)"
04. "РЕКА (О.Земляков - О.Земляков)"
05. "БЕЗ ТЕБЯ (А.Аваков,А.Пушкарёв - К.Кокс)"
06. "КУДА УХОДИТ ДЕТСТВО (А.Зацепин - Л.Дербенёв)"
07. "СМЕШНОЙ МАЛЬЧИШКА (И.Логинов - Дан Шувалов)"
08. "АВТОСТРАДЫ (А.Аваков,А.Пушкарёв - К.Кокс)"
09. "FOLLOW YOU (А.Аваков,А.Пушкарёв - К.Кокс)"
10. "ХОЧУ ТАНЦЕВАТЬ (А.Аваков,А.Пушкарёв - К.Кокс)"
11. "НАСТРОЕНИЕ (А.Аваков,А.Пушкарёв,С.Обоенков - К.Кокс)"
12. "Я ДРУГАЯ (REMIX) (А.Аваков,А.Пушкарёв,DJ Primat - Дан Шувалов)"
ВИА «СЛИВКИ» 2003 [«Легко!»]
01. "INTRO (А.Пушкарёв - А.Аваков)"
02. "МОЯ ЗВЕЗДА (А.Гусев - А.Репников)"
03. "ОБЛАКА (В.Шаинский - С.Козлов)"
04. "ВСЕГО и D-LOVE (О.Попков - О.Попков,К.Кокс,О.Земляков)"
05. "ЛЕГКО (Н.Павлова - Н.Павлова)"
06. "БУДУ Я ЛЮБИТЬ (И.Крутой - С.Алиханов,А.Жигарев)"
07. "РЕКА (О.Земляков - О.Земляков)"
08. "ВАЖНО (Н.Павлова - Н.Павлова)"
09. "ПОЛНО ВАРИАНТОВ (DJ Мишки - Л.Д'Элиа)"
10. "ВСЁ,ЧТО НУЖНО (Н.Павлова - Н.Павлова)"
11. "ДВА ДНЯ (А.Аваков,А.Пушкарёв - Дан Шувалов)"
12. "ВОКРУГ МЕНЯ (Н.Павлова - Н.Павлова)"
13. "БУДУ Я ЛЮБИТЬ (РЕМИКС) (И.Крутой - С.Алиханов,А.Жигарев)"
"ВИА «СЛИВКИ» 2005 [«Выше облаков»]
01. Intro
02. «Выше облаков» (romantic version)
03. «Самая лучшая» (дуэт с А.Варум)
04. «Реки и мосты»
05. «Мамин сынок»
06. «Стой-той-той»
07. «На Гавайи»
08. «Сари лала»
09. «Выше облаков» (original version)
10. «Реки и мосты» (англ. Версия)
11. «Выше облаков» (instrumental version)
12. «Самая лучшая» (instrumental version)
ВИА «СЛИВКИ» 2007 [«Заморочки»]
01. Интро
02. Летняя Москва (саундтрек к к/ф "Жара")
03. Заморочки
04. Хватит
05. От простого до сложного
06. Новые облака
07. Тарантино
08. Клубная зона - Feat. Доминик Джокер
09. Буду я любить - Feat. Тимати
10. Летняя Москва (Remix F.S.B. Project)
11. Летняя Москва (караоке версия)
12. Заморочки (караоке версия)
ОТЧЕТЫ ПО ИЗВЛЕЧЕНИЮ EAC:
ВИА «СЛИВКИ» 2001 [«Первая весна»]
Exact Audio Copy V0.99 prebeta 3 from 28. July 2007
Отчёт EAC об извлечении, выполненном 26. июля 2009, 18:20
ВИА "Сливки" / "Первая весна"
Дисковод: Optiarc DVD RW AD-7190A Adapter: 0 ID: 0
Режим чтения : Достоверность
Использование точного потока : Да
Отключение кэша аудио : Да
Использование указателей C2 : Нет
Коррекция смещения при чтении : 6
Способность читать области Lead-in и Lead-out : Нет
Заполнение пропущенных сэмплов тишиной : Да
Удаление блоков с тишиной в начале и конце : Нет
При вычислениях CRC использовались нулевые сэмплы : Да
Интерфейс : Встроенный Win32-интерфейс для Win NT/2000
Выходной формат : Внутренние WAV-операции
Формат сэмплов : 44.100 Гц; 16 бит; стерео
TOC извлечённого CD
Трек | Старт | Длительность | Начальный сектор | Конечный сектор
---------------------------------------------------------------------
1 | 0:00.00 | 3:19.32 | 0 | 14956
2 | 3:19.32 | 4:11.44 | 14957 | 33825
3 | 7:31.01 | 4:33.07 | 33826 | 54307
4 | 12:04.08 | 3:21.07 | 54308 | 69389
5 | 15:25.15 | 3:03.07 | 69390 | 83121
6 | 18:28.22 | 4:46.07 | 83122 | 104578
7 | 23:14.29 | 4:17.07 | 104579 | 123860
8 | 27:31.36 | 4:26.44 | 123861 | 143854
9 | 31:58.05 | 5:09.06 | 143855 | 167035
10 | 37:07.11 | 3:57.62 | 167036 | 184872
11 | 41:04.73 | 5:06.65 | 184873 | 207887
Характеристики диапазона извлечения и сообщения об ошибках
Выбранный диапазон
Имя файла J:\ВИА «СЛИВКИ» © [Дискография]\ВИА «СЛИВКИ» © 2001 [«Первая весна»]\ВИА Сливки - Первая весна.wav
Пиковый уровень 100.0 %
Качество диапазона 100.0 %
CRC теста 06780A69
CRC копии 06780A69
Копирование... OK
Ошибок не произошло
AccurateRip: сводка
Трек 1 нет в базе данных
Трек 2 нет в базе данных
Трек 3 нет в базе данных
Трек 4 нет в базе данных
Трек 5 нет в базе данных
Трек 6 нет в базе данных
Трек 7 нет в базе данных
Трек 8 нет в базе данных
Трек 9 нет в базе данных
Трек 10 нет в базе данных
Трек 11 нет в базе данных
Ни одного трека нет в базе AccurateRip
Конец отчёта
ВИА «СЛИВКИ» 2002 [«Настроение...»]
Exact Audio Copy V0.99 prebeta 3 from 28. July 2007
Отчёт EAC об извлечении, выполненном 26. июля 2009, 22:09
ВИА "Сливки" / "Настроение..."
Дисковод: Optiarc DVD RW AD-7190A Adapter: 0 ID: 0
Режим чтения : Достоверность
Использование точного потока : Да
Отключение кэша аудио : Да
Использование указателей C2 : Нет
Коррекция смещения при чтении : 6
Способность читать области Lead-in и Lead-out : Нет
Заполнение пропущенных сэмплов тишиной : Да
Удаление блоков с тишиной в начале и конце : Нет
При вычислениях CRC использовались нулевые сэмплы : Да
Интерфейс : Встроенный Win32-интерфейс для Win NT/2000
Выходной формат : Внутренние WAV-операции
Формат сэмплов : 44.100 Гц; 16 бит; стерео
TOC извлечённого CD
Трек | Старт | Длительность | Начальный сектор | Конечный сектор
---------------------------------------------------------------------
1 | 0:00.00 | 4:00.53 | 0 | 18052
2 | 4:00.53 | 4:08.29 | 18053 | 36681
3 | 8:09.07 | 3:09.15 | 36682 | 50871
4 | 11:18.22 | 4:38.26 | 50872 | 71747
5 | 15:56.48 | 4:09.41 | 71748 | 90463
6 | 20:06.14 | 4:48.39 | 90464 | 112102
7 | 24:54.53 | 3:51.65 | 112103 | 129492
8 | 28:46.43 | 3:52.17 | 129493 | 146909
9 | 32:38.60 | 5:33.10 | 146910 | 171894
10 | 38:11.70 | 3:31.34 | 171895 | 187753
11 | 41:43.29 | 3:33.65 | 187754 | 203793
12 | 45:17.19 | 4:13.35 | 203794 | 222803
Характеристики диапазона извлечения и сообщения об ошибках
Выбранный диапазон
Имя файла C:\Новая папка\ВИА Сливки - Настроение ....wav
Пиковый уровень 99.4 %
Качество диапазона 100.0 %
CRC теста AAFE4A4A
CRC копии AAFE4A4A
Копирование... OK
Ошибок не произошло
AccurateRip: сводка
Трек 1 нет в базе данных
Трек 2 нет в базе данных
Трек 3 нет в базе данных
Трек 4 нет в базе данных
Трек 5 нет в базе данных
Трек 6 нет в базе данных
Трек 7 нет в базе данных
Трек 8 нет в базе данных
Трек 9 нет в базе данных
Трек 10 нет в базе данных
Трек 11 нет в базе данных
Трек 12 нет в базе данных
Ни одного трека нет в базе AccurateRip
Конец отчёта
ВИА «СЛИВКИ» 2003 [«Легко!»]
Exact Audio Copy V0.99 prebeta 3 from 28. July 2007
Отчёт EAC об извлечении, выполненном 26. июля 2009, 16:58
ВИА "Сливки" / "Легко !?"
Дисковод: Optiarc DVD RW AD-7190A Adapter: 0 ID: 0
Режим чтения : Достоверность
Использование точного потока : Да
Отключение кэша аудио : Да
Использование указателей C2 : Нет
Коррекция смещения при чтении : 6
Способность читать области Lead-in и Lead-out : Нет
Заполнение пропущенных сэмплов тишиной : Да
Удаление блоков с тишиной в начале и конце : Нет
При вычислениях CRC использовались нулевые сэмплы : Да
Интерфейс : Встроенный Win32-интерфейс для Win NT/2000
Выходной формат : Внутренние WAV-операции
Формат сэмплов : 44.100 Гц; 16 бит; стерео
TOC извлечённого CD
Трек | Старт | Длительность | Начальный сектор | Конечный сектор
---------------------------------------------------------------------
1 | 0:00.00 | 1:07.50 | 0 | 5074
2 | 1:07.50 | 3:35.46 | 5075 | 21245
3 | 4:43.21 | 3:51.50 | 21246 | 38620
4 | 8:34.71 | 3:22.15 | 38621 | 53785
5 | 11:57.11 | 3:54.21 | 53786 | 71356
6 | 15:51.32 | 3:13.09 | 71357 | 85840
7 | 19:04.41 | 4:36.06 | 85841 | 106546
8 | 23:40.47 | 3:21.11 | 106547 | 121632
9 | 27:01.58 | 4:02.54 | 121633 | 139836
10 | 31:04.37 | 3:42.14 | 139837 | 156500
11 | 34:46.51 | 3:31.38 | 156501 | 172363
12 | 38:18.14 | 3:25.65 | 172364 | 187803
13 | 41:44.04 | 3:57.22 | 187804 | 205600
Характеристики диапазона извлечения и сообщения об ошибках
Выбранный диапазон
Имя файла J:\ВИА «СЛИВКИ» © [Дискография]\ВИА «СЛИВКИ» © 2003 [«Легко!»]\ВИА Сливки - Легко !.wav
Пиковый уровень 98.8 %
Качество диапазона 100.0 %
CRC теста 690665E1
CRC копии 690665E1
Копирование... OK
Ошибок не произошло
AccurateRip: сводка
Трек 1 нет в базе данных
Трек 2 нет в базе данных
Трек 3 нет в базе данных
Трек 4 нет в базе данных
Трек 5 нет в базе данных
Трек 6 нет в базе данных
Трек 7 нет в базе данных
Трек 8 нет в базе данных
Трек 9 нет в базе данных
Трек 10 нет в базе данных
Трек 11 нет в базе данных
Трек 12 нет в базе данных
Трек 13 нет в базе данных
Ни одного трека нет в базе AccurateRip
Конец отчёта
ВИА «СЛИВКИ» 2005 [«Выше облаков»]
Exact Audio Copy V0.99 prebeta 5 from 4. May 2009
Отчёт EAC об извлечении, выполненном 8. июля 2009, 17:14
ВИА Сливки / Выше облаков
Дисковод: ASUS DRW-1814BL Adapter: 1 ID: 0
Режим чтения : Достоверность
Использование точного потока : Да
Отключение кэша аудио : Да
Использование указателей C2 : Нет
Коррекция смещения при чтении : 6
Способность читать области Lead-in и Lead-out : Нет
Заполнение пропущенных сэмплов тишиной : Да
Удаление блоков с тишиной в начале и конце : Нет
При вычислениях CRC использовались нулевые сэмплы : Да
Интерфейс : Установленный внешний ASPI-интерфейс
Выходной формат : Внутренние WAV-операции
Формат сэмплов : 44.100 Гц; 16 бит; стерео
TOC извлечённого CD
Трек | Старт | Длительность | Начальный сектор | Конечный сектор
---------------------------------------------------------------------
1 | 0:00.00 | 0:30.35 | 0 | 2284
2 | 0:30.35 | 3:24.45 | 2285 | 17629
3 | 3:55.05 | 3:24.24 | 17630 | 32953
4 | 7:19.29 | 3:04.30 | 32954 | 46783
5 | 10:23.59 | 3:29.04 | 46784 | 62462
6 | 13:52.63 | 3:37.05 | 62463 | 78742
7 | 17:29.68 | 3:25.34 | 78743 | 94151
8 | 20:55.27 | 2:51.10 | 94152 | 106986
9 | 23:46.37 | 3:23.15 | 106987 | 122226
10 | 27:09.52 | 3:04.51 | 122227 | 136077
11 | 30:14.28 | 3:23.02 | 136078 | 151304
12 | 33:37.30 | 3:21.57 | 151305 | 166436
Характеристики диапазона извлечения и сообщения об ошибках
Выбранный диапазон
Имя файла E:\НА-А-А-АШЕ!!!!!!!\ВИА Сливки - Выше облаков\ВИА Сливки - Выше облаков.wav
Пиковый уровень 98.8 %
Качество диапазона 99.9 %
CRC теста EF844B64
CRC копии EF844B64
Копирование... OK
Ошибок не произошло
AccurateRip: сводка
Трек 1 нет в базе данных
Трек 2 нет в базе данных
Трек 3 нет в базе данных
Трек 4 нет в базе данных
Трек 5 нет в базе данных
Трек 6 нет в базе данных
Трек 7 нет в базе данных
Трек 8 нет в базе данных
Трек 9 нет в базе данных
Трек 10 нет в базе данных
Трек 11 нет в базе данных
Трек 12 нет в базе данных
Ни одного трека нет в базе AccurateRip
Конец отчёта
ВИА «СЛИВКИ» 2007 [«Заморочки»]
Exact Audio Copy V0.99 prebeta 3 from 28. July 2007
Отчёт EAC об извлечении, выполненном 11. июля 2009, 11:58
ВИА "СЛИВКИ" / "Заморочки"
Дисковод: Optiarc DVD RW AD-7190A Adapter: 0 ID: 0
Режим чтения : Достоверность
Использование точного потока : Да
Отключение кэша аудио : Да
Использование указателей C2 : Нет
Коррекция смещения при чтении : 48
Способность читать области Lead-in и Lead-out : Нет
Заполнение пропущенных сэмплов тишиной : Да
Удаление блоков с тишиной в начале и конце : Нет
При вычислениях CRC использовались нулевые сэмплы : Нет
Интерфейс : Встроенный Win32-интерфейс для Win NT/2000
Выходной формат : Внутренние WAV-операции
Формат сэмплов : 44.100 Гц; 16 бит; стерео
TOC извлечённого CD
Трек | Старт | Длительность | Начальный сектор | Конечный сектор
---------------------------------------------------------------------
1 | 0:00.00 | 1:11.56 | 0 | 5380
2 | 1:11.56 | 3:40.48 | 5381 | 21928
3 | 4:52.29 | 3:16.74 | 21929 | 36702
4 | 8:09.28 | 3:27.12 | 36703 | 52239
5 | 11:36.40 | 3:30.01 | 52240 | 67990
6 | 15:06.41 | 3:20.56 | 67991 | 83046
7 | 18:27.22 | 4:05.43 | 83047 | 101464
8 | 22:32.65 | 4:10.67 | 101465 | 120281
9 | 26:43.57 | 3:59.54 | 120282 | 138260
10 | 30:43.36 | 3:33.42 | 138261 | 154277
11 | 34:17.03 | 3:42.10 | 154278 | 170937
12 | 37:59.13 | 3:17.48 | 170938 | 185760
Характеристики диапазона извлечения и сообщения об ошибках
Выбранный диапазон
Имя файла J:\ВИА «СЛИВКИ» © [Дискография]\ВИА «СЛИВКИ» © 2007 [Заморочки]\ВИА СЛИВКИ - Заморочки.wav
Пиковый уровень 98.8 %
Качество диапазона 100.0 %
CRC копии 0D7F6E68
Копирование... OK
Ошибок не произошло
Конец отчёта


Last edited by STOJAK on 2009-12-30 07:54; edited 2 times in total
[Profile]  [PM] 

bot · Post 19-Sep-2009 19:58 (after 12 hours)

Топик был перенесен из форума Отечественная музыка других жанров (Lossless) в форум Отечественная Поп музыка (lossless)


23andrey231
 
Display posts:    
Reply to topic

Current time is: 28-Feb 19:56

All times are UTC + 2



You cannot post new topics in this forum
You cannot reply to topics in this forum
You cannot edit your posts in this forum
You cannot delete your posts in this forum
You cannot vote in polls in this forum
You cannot attach files in this forum
You cannot download files in this forum