Превосходство / Transcendence (Уолли Пфистер) [2014, Фантастика, боевик, триллер, драма, ВDRip-AVC] [1080p] [Dub Line]

Reply to topic
 
Author
Message

Враг Нароода ®

Gender: Unknown

Longevity: 4 years 7 months

Posts: 315

Reputation: 1 [+] [-]

Враг Нароода · Post 10-Sep-2014 17:58

[Quote] 

--Превосходство / Transcendence-- --Год выпуска: 2014
Выпущено: США, Китай, Alcon Entertainment, DMG Entertainment, Straight Up Films, Syncopy
Жанр:: Фантастика, боевик, триллер, драма
Продолжительность: 01:59:14
Озвучка : Дубляж - [Чистый звук]Официальный
Субтитры: Русские,Английские-- --Режиссер: Уолли Пфистер--В ролях: Джонни Депп, Ребекка Холл, Пол Беттани, Киллиан Мёрфи, Морган Фримен, Кейт Мара, Клифтон Коллинз мл., Коул Хаузер, Джош Стюарт, Кори Хардрикт-- Выдающийся исследователь в области изучения искусственного интеллекта Доктор Уилл Кастер работает над созданием компьютера, который сможет собрать в себе все знания и опыт, накопленные человечеством. Достаточно спорные эксперименты, проводимые Уиллом, прославили его, и в то же время сделали основной целью радикальной анти-технологической группировки. Экстремисты делают все возможное, чтобы остановить его. Однако в своих попытках уничтожить Уилла они добиваются обратного и становятся невольными участниками становления его абсолютного превосходства. Для его жены Эвелин и лучшего друга Макса Вотерса, тоже ученых-исследователей, встает вопрос должны ли они продолжать этот эксперимент. Их худшие опасения претворяются в жизнь, когда жажда знаний Уилла переходит в неконтролируемую жажду власти…--Качество : ВDRip-AVC 1080p Источник: / BD Remux/ 1080p)
Формат: MPEG-4
Кодек: H264
Видео: 8330Кбит/сек,1920х1080(16.9),в 25.000кадр/сек,AVC(Baseline@L4.0)(1Ref Frames)
Кодек: AAC
Звук Russian:281Кбит/сек,48.0КГц,2канала,AAC,(Version4)(LC)--

MediaInfo

General
Полное имя : D:\Ф А Н Т А С Т И К А +П Р И К Л Ю Ч Е Н И Я + Ф Э Н Т А З И\Превосходство_2014\TRANSCENDENCE_2014_RUS_x264_Nikolai.Baranov_BDRip-AVC_(1080p)\TRANSCENDENCE_2014_RUS_x264_Nikolai.Baranov_BDRip-AVC_(1080p).mp4
Формат : MPEG-4
Профиль формата : Base Media
Идентификатор кодека : isom
Размер файла : 7.18 GiB
Продолжительность : 1h 59mn
Режим общего битрейта : Variable
Общий поток : 8 618 Kbps
Название фильма : Release for Piratbit.net_R.G. HD-Films
Дата кодирования : UTC 2014-09-09 19:13:21
Дата пометки : UTC 2014-09-09 19:13:21
Программа кодирования : Lavf51.12.1
Video
Идентификатор : 1
Формат : AVC
Формат/Информация : Advanced Video Codec
Профиль формата : Baseline@L4.0
Параметр CABAC формата : No
Параметр ReFrames формата : 1 frame
Параметр GOP формата : M=1, N=12
Идентификатор кодека : avc1
Идентификатор кодека/Информация : Advanced Video Coding
Продолжительность : 1h 59mn
Вид битрейта : Variable
Битрейт : 8 330 Kbps
Максимальный битрейт : 12.0 Mbps
Ширина : 1 920 pixels
Высота : 1 080 pixels
Соотношение сторон : 16:9
Режим частоты кадров : Constant
Частота кадров : 25.000 fps
Частота кадров в оригинале : 24.000 fps
Цветовое пространство : YUV
Субдискретизация насыщенности : 4:2:0
Битовая глубина : 8 bits
Тип развёртки : Progressive
Бит/(Пиксели*Кадры) : 0.161
Размер потока : 6.94 GiB (97%)
Язык : Russian
Дата кодирования : UTC 2014-09-09 19:13:21
Дата пометки : UTC 2014-09-09 19:13:21
Audio
Идентификатор : 2
Формат : AAC
Формат/Информация : Advanced Audio Codec
Профиль формата : LC
Идентификатор кодека : 40
Продолжительность : 1h 59mn
Вид битрейта : Variable
Битрейт : 281 Kbps
Каналы : 2 channels
Channel(s)_Original : 6 channels
Расположение каналов : Front: L C R, Side: L R, LFE
Частота : 48.0 KHz
Метод сжатия : Lossy
Размер потока : 239 MiB (3%)
Язык : Russian
Дата кодирования : UTC 2014-09-09 19:13:21
Дата пометки : UTC 2014-09-09 19:13:21
--

Скриншоты

-- -- --Релиз от: Nikolai.Baranov -- -- -- --
[Profile]  [PM] 
Display posts:    
Reply to topic

Current time is: 21-Apr 10:46

All times are UTC + 2



You cannot post new topics in this forum
You cannot reply to topics in this forum
You cannot edit your posts in this forum
You cannot delete your posts in this forum
You cannot vote in polls in this forum
You cannot attach files in this forum
You cannot download files in this forum