Грань будущего / Edge of Tomorrow (Даг Лайман) [2014, Фантастика, боевик, ВDRip-AVC 1080p] [Дубляж, iTunes Russia]

Reply to topic
 
Author
Message

Враг Нароода ®

Gender: Unknown

Longevity: 4 years 7 months

Posts: 315

Reputation: 1 [+] [-]

Враг Нароода · Post 19-Sep-2014 14:51

[Quote] 

--Грань будущего / Edge of Tomorrow-- --Год выпуска: 2014
Выпущено: США, 3 Arts Entertainment, Translux, Viz Media
Жанр: Фантастика, боевик
Продолжительность: 01:53:27
Озвучка :Дубляж, iTunes Russia
Субтитры: Русские,Украинские-- --Режиссер: Даг Лайман--В ролях: Том Круз, Эмили Блант, Билл Пэкстон, Лара Пулвер, Джереми Пивен, Шарлотта Райли, Джонас Армстронг, Мадлен Манток, Марианн Жан-Батист, Ли Асквит-Коу-- Живи заново. Умри опять
Хорошая идея — «снова, и снова»!
Да, старина Круз — молодец, ничего не скажу. Один из немногих долгоиграющих «не скатывающихся». Исправно скачет, дерётся, стреляет, «истекает кровью»… И не смотря на его возраст. Ему бы в пору уже предпенсионных полицейских играть, или ветеранов войны. Но нет — сохраняет динамику, молодец. Но речь не о нём, простите уж.
Какая-то странная ирония выходит с самой идеей фильма. Принцип временной петли ворвался в кинематограф довольно давно, и с тех пор его повторяют снова, и снова. Снова, и снова… Сам принцип «временной петли» попал, своего рода, во временную петлю. Но так как, ну уж хороша идея, то и фильмы получаются неплохими. А некоторые даже почти шедеврами. Но не этот…
Да, соглашусь — фильм довольно… нет, очень качественный, на совесть. И уже почти не раздражает то, что весь мир опять спасает Америка во главе с «простым американским парнем», даже не смотря на то, что само спасение происходит в центре Европы (видимо, все «европейские простые парни» не справились, или закончились…), и почти весь актёрский состав отыгрывает на отлично, и напряжение не спадает до самых титров, не смотря на то, что уже любуешься на счастливый конец, но… Во-первых, сам-то конец уж очень предсказуем — ну большинство фильмов с данной идеей заканчиваются счастливым триумфом любви, пронесённой сквозь эту самую петлю времени. Во вторых, собственно, сам «рецикл» — фишка уже знакомая, и здесь в её принцип не привнесли ничего нового, а потому, ловишь себя на том, что уже ждёшь развязки, а не любуешься повествованием. История любви (ну раз уж её сюда вплели), как-то поверхностно пробегается…
--Качество : ВDRip-AVC 1080p
Формат: MPEG-4
Кодек: H264
Видео: 9371Кбит/сек,1920х1080(16.9),в 25.000кадр/сек,AVC(Baseline@L4.0)(1Ref Frames)
Кодек: AAC
Звук Russian:453Кбит/сек,48.0КГц,2канала,AAC,(Version4)(LC)--

MediaInfo

General
Полное имя : D:\Ф А Н Т А С Т И К А +П Р И К Л Ю Ч Е Н И Я + Ф Э Н Т А З И\Грань будущего\EDGE_OF_TORROW_2014_RUS[Tunes_Russia]_x264_Nikolai.Baranov_BDRip-AVC_(1080p)\EDGE_OF_TORROW_2014_RUS[Tunes_Russia]_x264_Nikolai.Baranov_BDRip-AVC_(1080p).mp4
Формат : MPEG-4
Профиль формата : Base Media
Идентификатор кодека : isom
Размер файла : 7.79 GiB
Продолжительность : 1h 53mn
Режим общего битрейта : Variable
Общий поток : 9 830 Kbps
Название фильма : Edge of Tomorrow (2014)
Дата кодирования : UTC 2014-09-18 15:35:03
Дата пометки : UTC 2014-09-18 15:35:03
Программа кодирования : Lavf51.12.1
Video
Идентификатор : 1
Формат : AVC
Формат/Информация : Advanced Video Codec
Профиль формата : Baseline@L4.0
Параметр CABAC формата : No
Параметр ReFrames формата : 1 frame
Параметр GOP формата : M=1, N=12
Идентификатор кодека : avc1
Идентификатор кодека/Информация : Advanced Video Coding
Продолжительность : 1h 53mn
Вид битрейта : Variable
Битрейт : 9 371 Kbps
Максимальный битрейт : 13.5 Mbps
Ширина : 1 920 pixels
Высота : 1 080 pixels
Соотношение сторон : 16:9
Режим частоты кадров : Constant
Частота кадров : 25.000 fps
Частота кадров в оригинале : 24.000 fps
Цветовое пространство : YUV
Субдискретизация насыщенности : 4:2:0
Битовая глубина : 8 bits
Тип развёртки : Progressive
Бит/(Пиксели*Кадры) : 0.181
Размер потока : 7.43 GiB (95%)
Язык : English
Дата кодирования : UTC 2014-09-18 15:35:03
Дата пометки : UTC 2014-09-18 15:35:03
Audio
Идентификатор : 2
Формат : AAC
Формат/Информация : Advanced Audio Codec
Профиль формата : LC
Идентификатор кодека : 40
Продолжительность : 1h 53mn
Вид битрейта : Variable
Битрейт : 453 Kbps
Каналы : 2 channels
Channel(s)_Original : 6 channels
Расположение каналов : Front: L C R, Side: L R, LFE
Частота : 48.0 KHz
Метод сжатия : Lossy
Размер потока : 368 MiB (5%)
Язык : Russian
Дата кодирования : UTC 2014-09-18 15:35:03
Дата пометки : UTC 2014-09-18 15:35:03
--

Скриншоты

---- --Релиз от: Nikolai.Baranov -- -- -- --
[Profile]  [PM] 
Display posts:    
Reply to topic

Current time is: 21-Apr 10:04

All times are UTC + 2



You cannot post new topics in this forum
You cannot reply to topics in this forum
You cannot edit your posts in this forum
You cannot delete your posts in this forum
You cannot vote in polls in this forum
You cannot attach files in this forum
You cannot download files in this forum