Superнянь / Babysitting (Николас Бенаму, Филипп Лашо) [2014, КОМЕДИЯ, ВDRip-AVC1080p] [Dub] [Дубляж , iTunes]

Reply to topic
 
Author
Message

Враг Нароода ®

Gender: Unknown

Longevity: 4 years 7 months

Posts: 315

Reputation: 1 [+] [-]

Враг Нароода · Post 27-Dec-2014 16:53

[Quote] 

--Superнянь / Babysitting-- --Год выпуска: 2014
Выпущено: Франция, Axel Films, Cinéfrance 1888, Good Lap Production
Жанр: КОМЕДИЯ
Продолжительность: 01:24:03
Озвучка :Дубляж, [iTunes]
Субтитры: Русские-- --Режиссер: Николас Бенаму, Филипп Лашо--В ролях: Филипп Лашо, Алиса Давид, Венсан Дезанья, Тарек Будали, Жюльен Аррути, Грегуар Людиг, Давид Марсе, Жерар Жюньо, Клотильда Куро, Филипп Дюкен-- Клэр и Марк уезжают на все выходные, оставив своего сына под присмотром «хорошего парня» Фрэнка. На следующее утро парочку будит звонок полицейского, который сообщает, что их дом перевернут верх дном, а сын исчез! На месте происшествия полиция находит камеру, на которой запечатлены все события предыдущей ночи. Только посмотрев видео родители смогут узнать куда исчез их сын и что случилось в эту ночь… когда Фрэнк праздновал 30-летие.-- --Качество : ВDRip-AVC 1080p
Формат: MPEG-4
Кодек: H264
Видео: 7286Кбит/сек,1920х1080(16.9),в 25.000кадр/сек,AVC(Baseline@L4.0)(1Ref Frames)
Кодек: AAC
Аудио Russian Dolby Digital 5.1:496Кбит/сек,48.0КГц,6каналов,AAC,(Version4)(LC)--

Доп. информация:

Звуковая дорожка сделана путем наложения чистого голоса озвучивателей на центральный канал оригинальной дорожки. Качество идентично звуковой дорожке.
--

MediaInfo

General
Полное имя : D:\К О М Е Д И И\Superнянь\BABYSITING_2014_RUS[iTunes]_DD5.1_x264_Nikolai.Baranov_ВDRip-AVC_(1080p)\BABYSITING_2014_RUS[iTunes]_DD5.1_x264_Nikolai.Baranov_ВDRip-AVC_(1080p).mp4
Формат : MPEG-4
Профиль формата : Base Media
Идентификатор кодека : isom
Размер файла : 4.57 GiB
Продолжительность : 1h 24mn
Режим общего битрейта : Variable
Общий поток : 7 790 Kbps
Дата кодирования : UTC 2014-12-27 07:29:48
Дата пометки : UTC 2014-12-27 07:29:48
Программа кодирования : Lavf51.12.1
Video
Идентификатор : 1
Формат : AVC
Формат/Информация : Advanced Video Codec
Профиль формата : Baseline@L4.0
Параметр CABAC формата : No
Параметр ReFrames формата : 1 frame
Параметр GOP формата : M=1, N=12
Идентификатор кодека : avc1
Идентификатор кодека/Информация : Advanced Video Coding
Продолжительность : 1h 24mn
Вид битрейта : Variable
Битрейт : 7 286 Kbps
Максимальный битрейт : 10.5 Mbps
Ширина : 1 920 pixels
Высота : 1 080 pixels
Соотношение сторон : 16:9
Режим частоты кадров : Constant
Частота кадров : 25.000 fps
Частота кадров в оригинале : 24.000 fps
Цветовое пространство : YUV
Субдискретизация насыщенности : 4:2:0
Битовая глубина : 8 bits
Тип развёртки : Progressive
Бит/(Пиксели*Кадры) : 0.141
Размер потока : 4.28 GiB (94%)
Язык : English
Дата кодирования : UTC 2014-12-27 07:29:48
Дата пометки : UTC 2014-12-27 07:29:48
Audio
Идентификатор : 2
Формат : AAC
Формат/Информация : Advanced Audio Codec
Профиль формата : LC
Идентификатор кодека : 40
Продолжительность : 1h 24mn
Вид битрейта : Variable
Битрейт : 496 Kbps
Каналы : 6 channels
Расположение каналов : Front: L C R, Side: L R, LFE
Частота : 48.0 KHz
Метод сжатия : Lossy
Размер потока : 298 MiB (6%)
Язык : Russian
Дата кодирования : UTC 2014-12-27 07:29:48
Дата пометки : UTC 2014-12-27 07:29:48
---

Скриншоты

-- -- -- --Релиз от: Nikolai.Baranov -- -- -- --
[Profile]  [PM] 
Display posts:    
Reply to topic

Current time is: 21-Apr 10:27

All times are UTC + 2



You cannot post new topics in this forum
You cannot reply to topics in this forum
You cannot edit your posts in this forum
You cannot delete your posts in this forum
You cannot vote in polls in this forum
You cannot attach files in this forum
You cannot download files in this forum