Любовь от всех болезней / Суперхондрик / Supercondriaque (Дани Бун) [2014, Комедия, приключения, драма, ВDRip-AVC1080p] [Dub] [Дубляж , iTunes]

Reply to topic
 
Author
Message

Враг Нароода ®

Gender: Unknown

Longevity: 4 years 7 months

Posts: 315

Reputation: 1 [+] [-]

Враг Нароода · Post 29-Dec-2014 15:24

[Quote] 

--Любовь от всех болезней / Суперхондрик / Supercondriaque-- --Год выпуска: 2014
Выпущено: Франция, Pathé, Les Productions du Ch'timi
Жанр: Комедия, приключения, драма
Продолжительность: 1:47:29
Озвучка :Дубляж, [iTunes]
Субтитры: Английские-- --Режиссер: Дани Бун--В ролях: Дани Бун, Кад Мерад, Элис Поль, Жан-Ив Бертело, Жюдит Эль Зейн, Марта Виллалонга, Валери Боннетон, Бруно Лоше, Жером Коммандёр, Джонатан Коэн-- Роман Фобер — чудак и ипохондрик. Он никогда не был женат. Вся его жизнь сводится к тому, чтобы выискивать у себя симптомы страшных, на деле не существующих, болезней. Каждой находкой он стремится поделиться со своим единственным другом — доктором Димитрием Звенкой. Димитрий решает помочь Роману найти женщину и таким образом излечить его от постоянной ипохондрии, которая становится невыносимой.-- --Качество : ВDRip-AVC 1080p
Формат: MPEG-4
Кодек: H264
Видео: 7294Кбит/сек,1920х1080(16.9),в 25.000кадр/сек,AVC(Baseline@L4.0)(1Ref Frames)
Кодек: AAC
Аудио Russian Dolby Digital 5.1:444Кбит/сек,48.0КГц,6каналов,AAC,(Version4)(LC)-- --

Доп. информация:

Звуковая дорожка сделана путем наложения чистого голоса озвучивателей на центральный канал оригинальной дорожки. Качество идентично звуковой дорожке.
--

MediaInfo

General
Полное имя : D:\К О М Е Д И И\Любовь от всех болезней (Суперхондрик)\SUPERCONDRIAGUE_2014_RUS[iTunes]_DD5.1_x264_Nikolai.Baranov_ВDRip-AVC_(1080p)\SUPERCONDRIAGUE_2014_RUS[iTunes]_DD5.1_x264_Nikolai.Baranov_ВDRip-AVC_(1080p).mp4
Формат : MPEG-4
Профиль формата : Base Media
Идентификатор кодека : isom
Размер файла : 5.81 GiB
Продолжительность : 1h 47mn
Режим общего битрейта : Variable
Общий поток : 7 745 Kbps
Дата кодирования : UTC 2014-12-28 20:19:41
Дата пометки : UTC 2014-12-28 20:19:41
Программа кодирования : Lavf51.12.1
Video
Идентификатор : 1
Формат : AVC
Формат/Информация : Advanced Video Codec
Профиль формата : Baseline@L4.0
Параметр CABAC формата : No
Параметр ReFrames формата : 1 frame
Параметр GOP формата : M=1, N=12
Идентификатор кодека : avc1
Идентификатор кодека/Информация : Advanced Video Coding
Продолжительность : 1h 47mn
Вид битрейта : Variable
Битрейт : 7 294 Kbps
Максимальный битрейт : 10.5 Mbps
Ширина : 1 920 pixels
Высота : 1 080 pixels
Соотношение сторон : 16:9
Режим частоты кадров : Constant
Частота кадров : 25.000 fps
Частота кадров в оригинале : 24.000 fps
Цветовое пространство : YUV
Субдискретизация насыщенности : 4:2:0
Битовая глубина : 8 bits
Тип развёртки : Progressive
Бит/(Пиксели*Кадры) : 0.141
Размер потока : 5.48 GiB (94%)
Язык : English
Дата кодирования : UTC 2014-12-28 20:19:41
Дата пометки : UTC 2014-12-28 20:19:41
Audio
Идентификатор : 2
Формат : AAC
Формат/Информация : Advanced Audio Codec
Профиль формата : LC
Идентификатор кодека : 40
Продолжительность : 1h 47mn
Вид битрейта : Variable
Битрейт : 444 Kbps
Каналы : 6 channels
Расположение каналов : Front: L C R, Side: L R, LFE
Частота : 48.0 KHz
Метод сжатия : Lossy
Размер потока : 341 MiB (6%)
Язык : Russian
Дата кодирования : UTC 2014-12-28 20:19:41
Дата пометки : UTC 2014-12-28 20:19:41
--

Скриншоты

-- -- -- --Релиз от: Nikolai.Baranov -- -- -- --
[Profile]  [PM] 
Display posts:    
Reply to topic

Current time is: 22-Apr 18:07

All times are UTC + 2



You cannot post new topics in this forum
You cannot reply to topics in this forum
You cannot edit your posts in this forum
You cannot delete your posts in this forum
You cannot vote in polls in this forum
You cannot attach files in this forum
You cannot download files in this forum