Великий уравнитель / The Equalizer (Антуан Фукуа) [2014, Боевик, триллер, криминал, ВDRip-AVC1080p] [Dub] [ Лицензия]

Reply to topic
 
Author
Message

Враг Нароода ®

Gender: Unknown

Longevity: 4 years 10 months

Posts: 335

Reputation: 1 [+] [-]

Враг Нароода · Post 30-Dec-2014 11:58

[Quote] 

--Великий уравнитель / The Equalizer-- --Год выпуска: 2014
Выпущено: США, Columbia Pictures, Escape Artists, Lionsgate
Жанр: Боевик, триллер, криминал
Продолжительность: 02:12:31
Озвучка :Дубляж,[ Лицензия]
Субтитры: Русские , Английские --
Режиссер: Антуан Фукуа--В ролях: Дензел Вашингтон, Мартон Чокаш, Клои Грэйс Моретц, Дэвид Харбор, Хейли Беннетт, Билл Пуллман, Мелисса Лео, Дэвид Мюнье, Джонни Скуртис, Алекс Видов-- Роберт МакКолл — бывший спецназовец. После увольнения со службы он собирается начать нормальную мирную жизнь, дав себе обещание, больше никогда не брать в руки оружия. Но в один прекрасный момент он встречает молодую девушку, зарабатывающую на жизнь проституцией, которую на его глазах избивают бандиты и увозят в неизвестном направлении. Тогда он решает отыскать ее, после чего вступает в неравную схватку с русской мафией и продажными агентами ЦРУ. Ради справедливости он готов нарушить собственное обещание и применить оружие против людей, которые просто не заслуживают жить в этом мире…--Качество : ВDRip-AVC 1080p
Формат: MPEG-4
Кодек: H264
Видео: 7284Кбит/сек,1920х1080(16.9),в 25.000кадр/сек,AVC(Baseline@L4.0)(1Ref Frames)
Кодек: AAC
Аудио Russian Dolby Digital 5.1:438Кбит/сек,48.0КГц,6каналов,AAC,(Version4)(LC)--

Доп. информация:

Звуковая дорожка сделана путем наложения чистого голоса озвучивателей на центральный канал оригинальной дорожки. Качество идентично звуковой дорожке.
--

MediaInfo

General
Полное имя : D:\Б О Е В И К И\Великий уравнитель\THE_EGUALIZER_2014_RUS_DD5.1_x264_Nikolai.Baranov_ВDRip-AVC_(1080p)\THE_EGUALIZER_2014_RUS_DD5.1_x264_Nikolai.Baranov_ВDRip-AVC_(1080p).mp4
Формат : MPEG-4
Профиль формата : Base Media
Идентификатор кодека : isom
Размер файла : 7.13 GiB
Продолжительность : 2h 12mn
Режим общего битрейта : Variable
Общий поток : 7 729 Kbps
Дата кодирования : UTC 2014-12-29 22:04:19
Дата пометки : UTC 2014-12-29 22:04:19
Программа кодирования : Lavf51.12.1
Video
Идентификатор : 1
Формат : AVC
Формат/Информация : Advanced Video Codec
Профиль формата : Baseline@L4.0
Параметр CABAC формата : No
Параметр ReFrames формата : 1 frame
Параметр GOP формата : M=1, N=12
Идентификатор кодека : avc1
Идентификатор кодека/Информация : Advanced Video Coding
Продолжительность : 2h 12mn
Вид битрейта : Variable
Битрейт : 7 284 Kbps
Максимальный битрейт : 10.5 Mbps
Ширина : 1 920 pixels
Высота : 1 080 pixels
Соотношение сторон : 16:9
Режим частоты кадров : Constant
Частота кадров : 25.000 fps
Частота кадров в оригинале : 24.000 fps
Цветовое пространство : YUV
Субдискретизация насыщенности : 4:2:0
Битовая глубина : 8 bits
Тип развёртки : Progressive
Бит/(Пиксели*Кадры) : 0.141
Размер потока : 6.72 GiB (94%)
Язык : English
Дата кодирования : UTC 2014-12-29 22:04:19
Дата пометки : UTC 2014-12-29 22:04:19
Audio
Идентификатор : 2
Формат : AAC
Формат/Информация : Advanced Audio Codec
Профиль формата : LC
Идентификатор кодека : 40
Продолжительность : 2h 12mn
Вид битрейта : Variable
Битрейт : 438 Kbps
Каналы : 6 channels
Расположение каналов : Front: L C R, Side: L R, LFE
Частота : 48.0 KHz
Метод сжатия : Lossy
Размер потока : 414 MiB (6%)
Язык : Russian
Дата кодирования : UTC 2014-12-29 22:04:19
Дата пометки : UTC 2014-12-29 22:04:19
--

Скриншоты

-- -- -- --Релиз от: Nikolai.Baranov -- -- -- --
[Profile]  [PM] 
Display posts:    
Reply to topic

Current time is: 17-Jul 12:17

All times are UTC + 2



You cannot post new topics in this forum
You cannot reply to topics in this forum
You cannot edit your posts in this forum
You cannot delete your posts in this forum
You cannot vote in polls in this forum
You cannot attach files in this forum
You cannot download files in this forum