Миссия невыполнима: Племя изгоев / Mission: Impossible - Rogue Nation (Кристофер МакКуорри) [2015, Боевик, триллер, приключения , BD-Remux 1080p] [DD5.1] [Dub Rus , Eng]+[Sub Rus , Ukr , Eng]

Reply to topic
 
Author
Message

Враг Нароода ®

Gender: Unknown

Longevity: 4 years 7 months

Posts: 315

Reputation: 1 [+] [-]

Враг Нароода · Post 26-Nov-2015 13:57

[Quote] 

--Миссия невыполнима: Племя изгоев / Mission: Impossible - Rogue Nation-- --[Год выпуска: 2015
Выпущено: США, Paramount Pictures, Skydance Productions, Bad Robot
Жанр: Боевик, триллер, приключения
Продолжительность: 02:11:33
Озвучка # 1 :Русский : - [Дубляж, Лицензия ]
Озвучка # 2 :Английский : - Оригинал
Субтитры: Russian , English , Ukrainian -- --Режиссер: Кристофер МакКуорри--В ролях: Том Круз, Ребекка Фергюсон (II), Саймон Пегг, Джереми Реннер, Винг Рэймс, Шон Харрис, Алек Болдуин, Саймон МакБерни, Йенс Хультен, Том Холландер, Чжан Цзинчу, Матео Руфино, Фернандо Абади, Алек Утгофф, Гермиона Корфилд, Найджел Барбер, Уильям Робертс, Патрик Полетти, Мартин Кокрейн, Дэвид Пирт-- Когда ОМН распускают, и Итан Хант остается не у дел, его команда неожиданно сталкивается с разветвленной международной сетью высокопрофессиональных спецагентов — Синдикатом. Это «племя изгоев» одержимо идеей установления нового мирового порядка и планирует серию разрушительных терактов. Итан и компания объединяются с дискредитированным британским агентом Ильзой Фауст и приступают к своей самой невыполнимой миссии…-- --Качество : BD-Remux (1080p)
Формат: MKV
Видео кодек: H264
Видео: 22,3Мбит/сек,1920х1080(16/9),в23.976кадр/сек,AVC(High@L4.1)(CABAC/4Ref Frames)
Аудио Кодек:AC3
Аудио #1:AC3 , 640 Kbps, 48.0 KHz, 6 ch- -Русский - [ Дубляж]
Аудио #2: AC3, 640 Kbps, 48.0 KHz, 6 ch - - Английский - Оригинал--

MediaInfo

Общее
Уникальный идентификатор : 234613203463814473133327419070568514238 (0xB080DC00FAF22B8EBA6ACDE78480C2BE)
Полное имя : E:\К ИНО\Б О Е В И К И\Миссия невыполнима Племя изгоев\Mission_Impossible_-_Rogue_Nation_2015_BD-Remux_1080p_Н264_DD5.1_N.B_Rus_Eng\Mission_Impossible_-_Rogue_Nation_2015_BD-Remux_1080p_Н264_DD5.1_N.B_Rus_Eng (1)-030.mkv
Формат : Matroska
Версия формата : Version 4 / Version 2
Размер файла : 351 Мбайт
Продолжительность : 2 м. 2 с.
Режим общего битрейта : Переменный
Общий поток : 24,1 Мбит/сек
Название фильма : Mission_Impossible_-_Rogue_Nation_2015_BD-Remux_1080p_Н264_DD5.1_N.B_Rus_Eng
Дата кодирования : UTC 2015-11-26 09:45:17
Программа кодирования : mkvmerge v8.5.2 ('Crosses') 64bit
Библиотека кодирования : libebml v1.3.3 + libmatroska v1.4.4
DURATION : 00:02:01.568000000
NUMBER_OF_FRAMES : 3799
NUMBER_OF_BYTES : 9725440
_STATISTICS_WRITING_APP : mkvmerge v8.5.2 ('Crosses') 64bit
_STATISTICS_WRITING_DATE_UTC : 2015-11-26 09:45:17
_STATISTICS_TAGS : BPS DURATION NUMBER_OF_FRAMES NUMBER_OF_BYTES
Видео
Идентификатор : 1
Формат : AVC
Формат/Информация : Advanced Video Codec
Профиль формата : High@L4.1
Параметр CABAC формата : Да
Параметр ReFrames формата : 4 кадра
Идентификатор кодека : V_MPEG4/ISO/AVC
Продолжительность : 2 м. 2 с.
Вид битрейта : Переменный
Битрейт : 22,3 Мбит/сек
Максимальный битрейт : 30,0 Мбит/сек
Ширина : 1920 пикселей
Высота : 1080 пикселей
Соотношение сторон : 16:9
Режим частоты кадров : Постоянный
Частота кадров : 23,976 кадра/сек
Цветовое пространство : YUV
Субдискретизация насыщенности : 4:2:0
Битовая глубина : 8 бит
Тип развёртки : Прогрессивная
Бит/(Пиксели*Кадры) : 0.449
Размер потока : 325 Мбайт (93%)
Default : Да
Forced : Нет
Аудио #1
Идентификатор : 19
Формат : AC-3
Формат/Информация : Audio Coding 3
Расширение режима : CM (complete main)
Параметр Endianness формата : Big
Идентификатор кодека : A_AC3
Продолжительность : 2 м. 2 с.
Вид битрейта : Постоянный
Битрейт : 640 Кбит/сек
Каналы : 6 каналов
Расположение каналов : Front: L C R, Side: L R, LFE
Частота : 48,0 КГц
Метод сжатия : С потерями
Задержка видео : 104 мс.
Размер потока : 9,32 Мбайт (3%)
Заголовок : AC3 5.1 @ 640 kbps - Dub, BD EUR
Язык : Russian
Default : Нет
Forced : Нет
Аудио #2
Идентификатор : 20
Формат : AC-3
Формат/Информация : Audio Coding 3
Расширение режима : CM (complete main)
Параметр Endianness формата : Big
Идентификатор кодека : A_AC3
Продолжительность : 2 м. 2 с.
Вид битрейта : Постоянный
Битрейт : 640 Кбит/сек
Каналы : 6 каналов
Расположение каналов : Front: L C R, Side: L R, LFE
Частота : 48,0 КГц
Метод сжатия : С потерями
Задержка видео : 104 мс.
Размер потока : 9,32 Мбайт (3%)
Заголовок : AC3 5.1 @ 640 kbps - Original
Язык : English
Default : Нет
Forced : Нет
Текст #1
Идентификатор : 2
Формат : UTF-8
Идентификатор кодека : S_TEXT/UTF8
Идентификатор кодека/Информация : UTF-8 Plain Text
Заголовок : Forced
Язык : Russian
Default : Да
Forced : Нет
Текст #2
Идентификатор : 3
Формат : UTF-8
Идентификатор кодека : S_TEXT/UTF8
Идентификатор кодека/Информация : UTF-8 Plain Text
Заголовок : Full
Язык : Russian
Default : Нет
Forced : Нет
Текст #3
Идентификатор : 4
Формат : UTF-8
Идентификатор кодека : S_TEXT/UTF8
Идентификатор кодека/Информация : UTF-8 Plain Text
Заголовок : Full
Язык : Ukrainian
Default : Нет
Forced : Нет
Текст #4
Идентификатор : 5
Формат : UTF-8
Идентификатор кодека : S_TEXT/UTF8
Идентификатор кодека/Информация : UTF-8 Plain Text
Заголовок : Forced
Язык : English
Default : Нет
Forced : Нет
Текст #5
Идентификатор : 6
Формат : UTF-8
Идентификатор кодека : S_TEXT/UTF8
Идентификатор кодека/Информация : UTF-8 Plain Text
Заголовок : Full
Язык : English
Default : Нет
Forced : Нет
Текст #6
Идентификатор : 7
Формат : UTF-8
Идентификатор кодека : S_TEXT/UTF8
Идентификатор кодека/Информация : UTF-8 Plain Text
Default : Нет
Forced : Нет
Текст #7
Идентификатор : 8
Формат : UTF-8
Идентификатор кодека : S_TEXT/UTF8
Идентификатор кодека/Информация : UTF-8 Plain Text
Default : Нет
Forced : Нет
Текст #8
Идентификатор : 9
Формат : UTF-8
Идентификатор кодека : S_TEXT/UTF8
Идентификатор кодека/Информация : UTF-8 Plain Text
Default : Нет
Forced : Нет
Текст #9
Идентификатор : 10
Формат : UTF-8
Идентификатор кодека : S_TEXT/UTF8
Идентификатор кодека/Информация : UTF-8 Plain Text
Default : Нет
Forced : Нет
Текст #10
Идентификатор : 11
Формат : UTF-8
Идентификатор кодека : S_TEXT/UTF8
Идентификатор кодека/Информация : UTF-8 Plain Text
Default : Нет
Forced : Нет
Текст #11
Идентификатор : 12
Формат : UTF-8
Идентификатор кодека : S_TEXT/UTF8
Идентификатор кодека/Информация : UTF-8 Plain Text
Default : Нет
Forced : Нет
Текст #12
Идентификатор : 13
Формат : UTF-8
Идентификатор кодека : S_TEXT/UTF8
Идентификатор кодека/Информация : UTF-8 Plain Text
Default : Нет
Forced : Нет
Текст #13
Идентификатор : 14
Формат : UTF-8
Идентификатор кодека : S_TEXT/UTF8
Идентификатор кодека/Информация : UTF-8 Plain Text
Default : Нет
Forced : Нет
Текст #14
Идентификатор : 15
Формат : UTF-8
Идентификатор кодека : S_TEXT/UTF8
Идентификатор кодека/Информация : UTF-8 Plain Text
Default : Нет
Forced : Нет
Текст #15
Идентификатор : 16
Формат : UTF-8
Идентификатор кодека : S_TEXT/UTF8
Идентификатор кодека/Информация : UTF-8 Plain Text
Default : Нет
Forced : Нет
Текст #16
Идентификатор : 17
Формат : UTF-8
Идентификатор кодека : S_TEXT/UTF8
Идентификатор кодека/Информация : UTF-8 Plain Text
Default : Нет
Forced : Нет
Текст #17
Идентификатор : 18
Формат : UTF-8
Идентификатор кодека : S_TEXT/UTF8
Идентификатор кодека/Информация : UTF-8 Plain Text
Default : Нет
Forced : Нет
--

Скриншоты

-- -- -- --Релиз от: Nikolai.Baranov -- -- -- --
[Profile]  [PM] 
Display posts:    
Reply to topic

Current time is: 21-Apr 10:05

All times are UTC + 2



You cannot post new topics in this forum
You cannot reply to topics in this forum
You cannot edit your posts in this forum
You cannot delete your posts in this forum
You cannot vote in polls in this forum
You cannot attach files in this forum
You cannot download files in this forum