13 часов: Тайные солдаты Бенгази / 13 Hours: The Secret Soldiers of Benghazi (Майкл Бэй / Michael Bay) [2016, боевик, триллер, драма, военный, BDRip 720p] Лицензия

Reply to topic
 
Author
Message

Anonym ®

Gender: Male

Reputation: 1006 [+] [-]

Anonym · Post 04-Jun-2016 17:36

[Quote] 

Информация о фильме
Название: 13 часов: Тайные солдаты Бенгази
Оригинальное название: 13 Hours: The Secret Soldiers of Benghazi
Год выхода: 2016
Жанр: Боевик, триллер, драма, военный
Режиссер: Майкл Бэй / Michael Bay
В ролях: Джон Красински, Джеймс Бэдж Дэйл, Пабло Шрайбер, Дэвид Денман, Доминик Фумуса, Макс Мартини, Алексия Бальер, Дэвид Костабайл, Пейман Моаади, Мэтт Летчер
О фильме: 2012 год. Бенгази, Ливия. Группа террористов решает «отпраздновать» события 11 сентября нападением на американское посольство. Шестерке бойцов из элитного спецотряда приказано вмешаться только в крайнем случае. Но когда под угрозой десятки жизней, долг и совесть берут верх над субординацией. И мужественные солдаты без колебаний вступают в бой с яростной группировкой боевиков. Бой, который для всех шестерых, скорее всего, станет последним.

Выпущено: США / 3 Arts Entertainment, Dune Films, Latina Pictures, Paramount Pictures
Продолжительность: 02:24:49
Перевод: Дублированный [Лицензия]
Примечание: Релиз без рекламы.
Файл
Формат: MKV
Качество: BDRip 720p
Видео: MPEG-4 AVC, 7248 kb/s, 1280x534
Аудио: Russian:/ English: AC3, 640 kb/s (6 ch)
Субтитры: Russian (full, forced), English

MI

Общее
Уникальный идентификатор : 199384077833208384474175133774236228233 (0x95FFFA0204C1DBBDB379AFD638AE1A89)
Полное имя : D:загрузки13.Hours.The.Secret.Soldiers.of.Benghazi.2016.D.720p.BluRay.mkv
Формат : Matroska
Версия формата : Version 4 / Version 2
Размер файла : 8,77 Гбайт
Продолжительность : 2 ч. 24 м.
Общий поток : 8688 Кбит/сек
Дата кодирования : UTC 2016-06-03 22:54:49
Программа кодирования : mkvmerge v8.3.0 ('Over the Horizon') 64bit
Библиотека кодирования : libebml v1.3.1 + libmatroska v1.4.2
Видео
Идентификатор : 1
Формат : AVC
Формат/Информация : Advanced Video Codec
Профиль формата : High@L4.1
Параметр CABAC формата : Да
Параметр ReFrames формата : 12 кадров
Идентификатор кодека : V_MPEG4/ISO/AVC
Продолжительность : 2 ч. 24 м.
Битрейт : 7235 Кбит/сек
Ширина : 1280 пикселей
Высота : 534 пикселя
Соотношение сторон : 2,40:1
Режим частоты кадров : Постоянный
Частота кадров : 23,976 кадра/сек
Цветовое пространство : YUV
Субдискретизация насыщенности : 4:2:0
Битовая глубина : 8 бит
Тип развёртки : Прогрессивная
Бит/(Пиксели*Кадры) : 0.441
Размер потока : 7,30 Гбайт (83%)
Заголовок : 13.Hours.The.Secret.Soldiers.of.Benghazi.2016.720p.BluRay.DD5.1.x264-EPiC@HDArea
Библиотека кодирования : x264 core 142 r2431+42 c69a006 tMod [8-bit@all X86_64]
Настройки программы : cabac=1 / ref=12 / deblock=1:-3:-3 / analyse=0x3:0x133 / me=umh / subme=11 / psy=1 / fade_compensate=0.00 / psy_rd=1.05:1.00 / mixed_ref=1 / me_range=32 / chroma_me=1 / trellis=2 / 8x8dct=1 / cqm=0 / deadzone=21,11 / fast_pskip=0 / chroma_qp_offset=-4 / threads=12 / lookahead_threads=2 / sliced_threads=0 / nr=0 / decimate=0 / interlaced=0 / bluray_compat=0 / constrained_intra=0 / fgo=0 / bframes=8 / b_pyramid=2 / b_adapt=2 / b_bias=0 / direct=3 / weightb=1 / open_gop=0 / weightp=2 / keyint=240 / keyint_min=23 / scenecut=40 / intra_refresh=0 / rc_lookahead=60 / rc=crf / mbtree=0 / crf=17.3000 / qcomp=0.60 / qpmin=0:0:0 / qpmax=69:69:69 / qpstep=4 / vbv_maxrate=40000 / vbv_bufsize=30000 / crf_max=0.0 / nal_hrd=none / filler=0 / ip_ratio=1.40 / pb_ratio=1.30 / aq=1:1.00 / aq-sensitivity=10.00 / aq-factor=1.00:1.00:1.00 / aq2=0 / aq3=0
Язык : English
Default : Да
Forced : Нет
Аудио #1
Идентификатор : 2
Формат : AC-3
Формат/Информация : Audio Coding 3
Расширение режима : CM (complete main)
Параметр Endianness формата : Big
Идентификатор кодека : A_AC3
Продолжительность : 2 ч. 24 м.
Вид битрейта : Постоянный
Битрейт : 640 Кбит/сек
Каналы : 6 каналов
Расположение каналов : Front: L C R, Side: L R, LFE
Частота : 48,0 КГц
Битовая глубина : 16 бит
Метод сжатия : С потерями
Размер потока : 661 Мбайт (7%)
Заголовок : Лицензия
Язык : Russian
Default : Да
Forced : Нет
Аудио #2
Идентификатор : 3
Формат : AC-3
Формат/Информация : Audio Coding 3
Расширение режима : CM (complete main)
Параметр Endianness формата : Big
Идентификатор кодека : A_AC3
Продолжительность : 2 ч. 24 м.
Вид битрейта : Постоянный
Битрейт : 640 Кбит/сек
Каналы : 6 каналов
Расположение каналов : Front: L C R, Side: L R, LFE
Частота : 48,0 КГц
Битовая глубина : 16 бит
Метод сжатия : С потерями
Размер потока : 661 Мбайт (7%)
Заголовок : Оригинал
Язык : English
Default : Нет
Forced : Нет
Текст #1
Идентификатор : 4
Формат : UTF-8
Идентификатор кодека : S_TEXT/UTF8
Идентификатор кодека/Информация : UTF-8 Plain Text
Заголовок : Форсированные
Язык : Russian
Default : Да
Forced : Нет
Текст #2
Идентификатор : 5
Формат : UTF-8
Идентификатор кодека : S_TEXT/UTF8
Идентификатор кодека/Информация : UTF-8 Plain Text
Заголовок : Полные
Язык : Russian
Default : Нет
Forced : Нет
Текст #3
Идентификатор : 6
Формат : PGS
Режим смешивания : zlib
Идентификатор кодека : S_HDMV/PGS
Идентификатор кодека/Информация : The same subtitle format used on BDs/HD-DVDs
Язык : English
Default : Нет
Forced : Нет
Текст #4
Идентификатор : 7
Формат : PGS
Режим смешивания : zlib
Идентификатор кодека : S_HDMV/PGS
Идентификатор кодека/Информация : The same subtitle format used on BDs/HD-DVDs
Язык : English
Default : Нет
Forced : Нет
Меню
00:00:00.000 : en:00:00:00.000
00:04:47.662 : en:00:04:47.662
00:09:01.541 : en:00:09:01.541
00:15:31.556 : en:00:15:31.556
00:21:12.229 : en:00:21:12.229
00:26:48.774 : en:00:26:48.774
00:31:22.756 : en:00:31:22.756
00:34:20.058 : en:00:34:20.058
00:39:36.124 : en:00:39:36.124
00:47:12.872 : en:00:47:12.872
00:53:59.027 : en:00:53:59.027
01:02:27.744 : en:01:02:27.744
01:10:03.324 : en:01:10:03.324
01:23:02.477 : en:01:23:02.477
01:27:11.101 : en:01:27:11.101
01:34:50.685 : en:01:34:50.685
01:42:36.359 : en:01:42:36.359
01:48:08.148 : en:01:48:08.148
01:53:47.279 : en:01:53:47.279
02:00:22.882 : en:02:00:22.882
02:07:19.465 : en:02:07:19.465
02:18:25.422 : en:02:18:25.422

Скриншоты

]



 
Display posts:    
Reply to topic

Current time is: 21-Apr 10:04

All times are UTC + 2



You cannot post new topics in this forum
You cannot reply to topics in this forum
You cannot edit your posts in this forum
You cannot delete your posts in this forum
You cannot vote in polls in this forum
You cannot attach files in this forum
You cannot download files in this forum