Джейсон Борн / Jason Bourne (Пол Гринграсс) [2016 г., Боевик, триллер, HDTVRip] MVO ("Paradox" & Omskbird records)

Reply to topic
 
Author
Message

groozin ®

Gender: Male

Longevity: 2 years 7 months

Posts: 46

Reputation: 0 [+] [-]

Location: ЛНР

groozin · Post 06-Sep-2016 18:35

[Quote] 

Джейсон Борн / Jason Bourne -«Вы знаете его имя»-
Год выпуска: 2016
Страна: США / Captivate Entertainment, Double Negative, Universal Pictures
Жанр: Боевик, триллер
Продолжительность: 02:01:27
Перевод: Профессиональный многоголосый / (Студия "Paradox" & Omskbird records)
Режиссер: Пол Гринграсс
В ролях: Мэтт Дэймон, Алисия Викандер, Томми Ли Джонс, Венсан Кассель, Джулия Стайлз, Риз Ахмед, Ато Эссонда, Скотт Шеперд, Билл Кэмп, Винцец Кифер

Описание:
Мир на грани катастрофы, а значит пришло время ему вернуться. Неаполь, Мюнхен, Нью-Йорк — его имя знают повсюду. Элитный суперагент, лучший из лучших, даже в Лас-Вегасе игра пойдет по его правилам. Он — Джейсон Борн.
- -16+ Зрителям, достигшим 16 летВнимание! Присутствует голосовая и титровая реклама спонсора показа!!!

MediaInfo:

Общее
Полное имя : E:\TORRENTY\Films\Jason.Bourne.2016.P.HDTVRip.2100MB_PARADOX_OMSKBIRD\Jason.Bourne.2016.P.HDTVRip.2100MB_PARADOX_OMSKBIRD\Jason.Bourne.2016.P.HDTVRip.2100MB_PARADOX_OMSKBIRD.avi
Формат : AVI
Формат/Информация : Audio Video Interleave
Профиль формата : OpenDML
Размер файла : 2,05 Гбайт
Продолжительность : 2 ч. 1 м.
Общий поток : 2413 Кбит/сек
Программа кодирования : VirtualDubMod 1.5.10.2 (build 2540/release)
Библиотека кодирования : VirtualDub build 32618/release
Видео
Идентификатор : 0
Формат : MPEG-4 Visual
Профиль формата : Advanced Simple@L5
Параметр BVOP формата : 2
Параметр QPel формата : Нет
Параметр GMC формата : Без точки перехода
Параметр матрицы формата : Выборочная
Идентификатор кодека : XVID
Идентификатор кодека/Подсказка : XviD
Продолжительность : 2 ч. 1 м.
Битрейт : 2013 Кбит/сек
Ширина : 720 пикселей
Высота : 304 пикселя
Соотношение сторон : 2,35:1
Частота кадров : 29,970 (30000/1001) кадров/сек
Цветовое пространство : YUV
Субдискретизация насыщенности : 4:2:0
Битовая глубина : 8 бит
Тип развёртки : Прогрессивная
Метод сжатия : С потерями
Бит/(Пиксели*Кадры) : 0.307
Размер потока : 1,71 Гбайт (83%)
Библиотека кодирования : XviD 1.2.1 (UTC 2008-12-04)
Аудио
Идентификатор : 1
Формат : AC-3
Формат/Информация : Audio Coding 3
Расширение режима : CM (complete main)
Параметр Endianness формата : Big
Идентификатор кодека : 2000
Продолжительность : 2 ч. 1 м.
Вид битрейта : Постоянный
Битрейт : 384 Кбит/сек
Каналы : 2 канала
Расположение каналов : Front: L R
Частота : 48,0 КГц
Частота кадров : 31,250 кадров/сек (1536 spf)
Метод сжатия : С потерями
Задержка видео : 17 мс.
Размер потока : 334 Мбайт (16%)
Выравнивание : Разделение по промежуткам
Продолжительность промежутка : 33 мс. (1,00 видеокадр)
Время предзагрузки промежутка : 500 мс.
Качество: HDTVRip
Формат: AVI
Данные видео: 720x304, XviD, 2013 Kbps, 29,970 fps, 0.307 Бит/(Пиксели*Кадры)
Аудио: русский: AC3, 384 Kbps, 2 ch, 48 kHz

Скриншоты


[Profile]  [PM] 
Display posts:    
Reply to topic

Current time is: 21-Apr 11:03

All times are UTC + 2



You cannot post new topics in this forum
You cannot reply to topics in this forum
You cannot edit your posts in this forum
You cannot delete your posts in this forum
You cannot vote in polls in this forum
You cannot attach files in this forum
You cannot download files in this forum