Отмель / The Shallows (Жауме Коллет-Серра) [2016 г., Ужасы, триллер, драма, WEB-DL 1080p] iTunes

Reply to topic
 
Author
Message

groozin ®

Gender: Male

Longevity: 2 years 10 months

Posts: 46

Reputation: 0 [+] [-]

Location: ЛНР

groozin · Post 08-Sep-2016 18:58

[Quote] 

Отмель / The Shallows -«То, что было когда-то в глубине- теперь на мели»-
Год выпуска: 2016
Страна: США / Columbia Pictures, Ombra Films, Weimaraner Republic Pictures
Жанр: Ужасы, триллер, драма
Продолжительность: 01:26:13
Перевод: Дублированный / iTunes
Режиссер: Жауме Коллет-Серра
В ролях: Блэйк Лайвли, Оскар Хаэнада, Бретт Каллен, Седона Ледже

Описание:
Бескрайний океан, безлюдный пляж и идеальная погода для серфингистов в поисках хорошей волны. Казалось бы, ничто не предвещает беды для очаровательной любительницы серфинга в одиночку. Разве что свидание тет-а-тет с гигантской акулой, которая загонит спортсменку на песчаную отмель и не отступит до тех пор, пока...
- -

MediaInfo:

Общее
Уникальный идентификатор : 189330951916766696427256144973561788691 (0x8E6FD0A1D8BEE7B6B4F6D5FA24F2F913)
Полное имя : E:\TORRENTY\Films\Otmel'.2016.WEB-DL.1080p\Otmel'.2016.WEB-DL.1080p\Otmel'.2016.WEB-DL.1080p.mkv
Формат : Matroska
Версия формата : Version 2
Размер файла : 3,09 Гбайт
Продолжительность : 1 ч. 26 м.
Общий поток : 5125 Кбит/сек
Название фильма : -=walledol=-
Дата кодирования : UTC 2016-09-07 18:47:57
Программа кодирования : mkvmerge v4.0.0 ('The Stars were mine') сборка от Jun 6 2010 16:18:42
Библиотека кодирования : libebml v1.0.0 + libmatroska v1.0.0
Видео
Идентификатор : 1
Формат : AVC
Формат/Информация : Advanced Video Codec
Профиль формата : High@L4
Параметр CABAC формата : Да
Параметр ReFrames формата : 5 кадров
Идентификатор кодека : V_MPEG4/ISO/AVC
Продолжительность : 1 ч. 26 м.
Битрейт : 4447 Кбит/сек
Ширина : 1920 пикселей
Высота : 792 пикселя
Соотношение сторон : 2,40:1
Режим частоты кадров : Постоянный
Частота кадров : 23,976 кадра/сек
Цветовое пространство : YUV
Субдискретизация насыщенности : 4:2:0
Битовая глубина : 8 бит
Тип развёртки : Прогрессивная
Бит/(Пиксели*Кадры) : 0.122
Размер потока : 2,68 Гбайт (87%)
Язык : English
Default : Да
Forced : Нет
Цветовой диапазон : Limited
Основные цвета : BT.709
Характеристики трансфера : BT.709
Коэффициенты матрицы : BT.709
Аудио #1
Идентификатор : 2
Формат : AC-3
Формат/Информация : Audio Coding 3
Расширение режима : CM (complete main)
Параметр Endianness формата : Big
Идентификатор кодека : A_AC3
Продолжительность : 1 ч. 26 м.
Вид битрейта : Постоянный
Битрейт : 384 Кбит/сек
Каналы : 6 каналов
Расположение каналов : Front: L C R, Side: L R, LFE
Частота : 48,0 КГц
Частота кадров : 31,250 кадров/сек (1536 spf)
Метод сжатия : С потерями
Размер потока : 237 Мбайт (7%)
Заголовок : DUB | iTunes
Язык : Russian
Default : Да
Forced : Да
Аудио #2
Идентификатор : 3
Формат : AC-3
Формат/Информация : Audio Coding 3
Расширение режима : CM (complete main)
Параметр Endianness формата : Big
Идентификатор кодека : A_AC3
Продолжительность : 1 ч. 26 м.
Вид битрейта : Постоянный
Битрейт : 192 Кбит/сек
Каналы : 2 канала
Расположение каналов : Front: L R
Частота : 48,0 КГц
Частота кадров : 31,250 кадров/сек (1536 spf)
Метод сжатия : С потерями
Размер потока : 118 Мбайт (4%)
Язык : English
Default : Нет
Forced : Нет
Текст #1
Идентификатор : 4
Формат : UTF-8
Идентификатор кодека : S_TEXT/UTF8
Идентификатор кодека/Информация : UTF-8 Plain Text
Заголовок : Forced
Язык : Russian
Default : Да
Forced : Да
Текст #2
Идентификатор : 5
Формат : UTF-8
Идентификатор кодека : S_TEXT/UTF8
Идентификатор кодека/Информация : UTF-8 Plain Text
Заголовок : Full
Язык : Russian
Default : Нет
Forced : Нет
Текст #3
Идентификатор : 6
Формат : UTF-8
Идентификатор кодека : S_TEXT/UTF8
Идентификатор кодека/Информация : UTF-8 Plain Text
Заголовок : Forced
Язык : English
Default : Нет
Forced : Нет
Текст #4
Идентификатор : 7
Формат : UTF-8
Идентификатор кодека : S_TEXT/UTF8
Идентификатор кодека/Информация : UTF-8 Plain Text
Заголовок : Full
Язык : English
Default : Нет
Forced : Нет
Меню
00:00:00.000 : en:1
00:08:08.697 : en:2
00:15:09.409 : en:3
00:20:30.938 : en:4
00:25:44.876 : en:5
00:30:06.053 : en:6
00:36:03.118 : en:7
00:40:38.685 : en:8
00:45:40.611 : en:9
00:49:31.216 : en:10
00:55:56.976 : en:11
01:01:20.507 : en:12
01:06:21.558 : en:13
01:09:56.439 : en:14
01:13:37.701 : en:15
01:19:00.482 : en:16
Качество: WEB-DL 1080p
Формат: mkv
Данные видео: 1920x792, MPEG4 AVC, 4447 Kbps, 23,976 fps, 0.122 Бит/(Пиксели*Кадры)
Аудио#1: русский: AC3, 384 Kbps, 6 ch, 48 kHz
Аудио#2: английский: AC3, 192 Kbps, 2 ch, 48 kHz

Субтитры: Russian (Forced, iTunes), Russian (iTunes), English (Forced, iTunes), English (iTunes)

Скриншоты


[Profile]  [PM] 
Display posts:    
Reply to topic

Current time is: 17-Jul 12:37

All times are UTC + 2



You cannot post new topics in this forum
You cannot reply to topics in this forum
You cannot edit your posts in this forum
You cannot delete your posts in this forum
You cannot vote in polls in this forum
You cannot attach files in this forum
You cannot download files in this forum