Люди Икс: Апокалипсис / X-Men: Apocalypse (Брайан Сингер / Bryan Singer) [2016, США, фантастика, фэнтези, боевик, приключения, BDRip-AVC] Dub + Original + Sub (rus, eng)

Reply to topic
 
Author
Message

Satyr ®

Gender: Unknown

Longevity: 10 years

Posts: 12852

Reputation: 54 [+] [-]

Satyr · Post 11-Sep-2016 01:20

[Quote] 

Люди Икс: Апокалипсис / X-Men: Apocalypse«Выживет сильнейший»- Страна: США
Жанр: фантастика, фэнтези, боевик, приключения
Год выпуска: 2016
Продолжительность: 02:23:56
Перевод: Профессиональный (дублированный) (iTunes)
Оригинальная аудиодорожка: английский
Cубтитры: русские (форс., полные) английские (полные)
Навигация по главам: есть
Режиссер: Брайан Сингер / Bryan Singer
В ролях: Майкл Фассбендер, Дженнифер Лоуренс, Джеймс МакЭвой, Эван Питерс, Николас Хоулт, Ченнинг Татум, Оскар Айзек, Александра Шипп, Тай Шеридан, Софи Тернер, Лана Кондор, Оливия Манн, Роуз Бирн, Хью Джекмен, Коди Смит-МакФи, Брендан Педдер
Описание: События «Дней Минувшего Будущего» оказали колоссальное влияние на мир, где мутанты и люди борются за свое место под Солнцем. В это нелегкое время Людям Икс предстоит столкнуться со своим самым опасным противником — древним мутантом Апокалипсисом, существом, схватка с которым может стать последней не только для мутантов, но и в принципе для всего человечества. В поисках способа победы над неуязвимым и бессмертным монстром Людям Икс предстоит узнать больше о происхождении своего вида. Но Апокалипсис неимоверно силен, и вероятность победы все уменьшается, ведь он твердо убежден, что только сильнейшие имеют право на выживание…- -Качество: BDRip-AVC (исходник - BDRemux|X-Men.Apocalypse.2016.1080p.BluRay.REMUX.AVC.DTS-HD.MA.7.1-FGT)
Формат видео: MKV
Видео: x264, 960x400 (2.40:1), 23,976 fps, ~1574 kbps, 0.171 bit/pixel
Аудио 1: 48 kHz, AC3 Dolby Digital, 3/2 (L,C,R,l,r) + LFE ch, ~384 kbps [русский]
Аудио 2: 48 kHz, AC3 Dolby Digital, 2/0 (L,R) ~192 kbps [английский]
Формат субтитров: softsub (SRT)-

MediaInfo | x264 log

Format : Matroska
Format version : Version 4 / Version 2
File size : 2.21 GiB
Duration : 2h 23mn
Overall bit rate : 2 194 Kbps
Movie name : Люди Икс: Апокалипсис / X-Men: Apocalypse (2016) :: AFM ::
Encoded date : UTC 2016-09-09 17:27:33
Writing application : mkvmerge v8.3.0 ('Over the Horizon') 32bit
Writing library : libebml v1.3.1 + libmatroska v1.4.2
Video
ID : 1
Format : AVC
Format/Info : Advanced Video Codec
Format profile : High@L4.1
Format settings, CABAC : Yes
Format settings, ReFrames : 11 frames
Codec ID : V_MPEG4/ISO/AVC
Duration : 2h 23mn
Bit rate : 1 574 Kbps
Width : 960 pixels
Height : 400 pixels
Display aspect ratio : 2.40:1
Frame rate mode : Constant
Frame rate : 23.976 fps
Color space : YUV
Chroma subsampling : 4:2:0
Bit depth : 8 bits
Scan type : Progressive
Bits/(Pixel*Frame) : 0.171
Stream size : 1.58 GiB (72%)
Title : BDRip by AFM [torrentsland.com.ua]
Writing library : x264 core 148 r2705+54 9f484c1 t_mod_Custom [8-bit@all X86_64]
Encoding settings : cabac=1 / ref=11 / deblock=1:-2:-2 / analyse=0x3:0x113 / me=umh / subme=10 / psy=1 / fade_compensate=0.00 / psy_rd=1.00:0.00 / mixed_ref=1 / me_range=32 / chroma_me=1 / trellis=2 / 8x8dct=1 / cqm=0 / deadzone=21,11 / fast_pskip=0 / chroma_qp_offset=-2 / threads=6 / lookahead_threads=1 / sliced_threads=0 / nr=0 / decimate=1 / interlaced=0 / bluray_compat=0 / constrained_intra=0 / fgo=0 / bframes=13 / b_pyramid=2 / b_adapt=2 / b_bias=0 / direct=1 / weightb=1 / open_gop=0 / weightp=2 / keyint=250 / keyint_min=23 / scenecut=40 / intra_refresh=0 / rc_lookahead=40 / rc=crf / mbtree=0 / crf=18.0500 / qcomp=0.65 / qpmin=0:0:0 / qpmax=69:69:69 / qpstep=4 / vbv_maxrate=50000 / vbv_bufsize=62500 / crf_max=0.0 / nal_hrd=none / filler=0 / ip_ratio=1.35 / pb_ratio=1.30 / aq=3:0.80 / aq-sensitivity=10.00 / aq-factor=1.00:1.00:1.00 / aq2=0 / aq3=0 / zones=192910,205110,q=30
Language : English
Default : Yes
Forced : No
Audio #1
ID : 2
Format : AC-3
Format/Info : Audio Coding 3
Mode extension : CM (complete main)
Format settings, Endianness : Big
Codec ID : A_AC3
Duration : 2h 23mn
Bit rate mode : Constant
Bit rate : 384 Kbps
Channel(s) : 6 channels
Channel positions : Front: L C R, Side: L R, LFE
Sampling rate : 48.0 KHz
Compression mode : Lossy
Stream size : 395 MiB (18%)
Title : Dub, AC3 5.1 ~384 kbps
Language : Russian
Default : Yes
Forced : No
Audio #2
ID : 3
Format : AC-3
Format/Info : Audio Coding 3
Mode extension : CM (complete main)
Format settings, Endianness : Big
Codec ID : A_AC3
Duration : 2h 23mn
Bit rate mode : Constant
Bit rate : 192 Kbps
Channel(s) : 2 channels
Channel positions : Front: L R
Sampling rate : 48.0 KHz
Compression mode : Lossy
Stream size : 198 MiB (9%)
Title : Original, AC3 2.0 ~192 kbps
Language : English
Default : No
Forced : No
Text #1
ID : 4
Format : UTF-8
Codec ID : S_TEXT/UTF8
Codec ID/Info : UTF-8 Plain Text
Title : forced
Language : Russian
Default : Yes
Forced : No
Text #2
ID : 5
Format : UTF-8
Codec ID : S_TEXT/UTF8
Codec ID/Info : UTF-8 Plain Text
Language : Russian
Default : No
Forced : No
Text #3
ID : 6
Format : UTF-8
Codec ID : S_TEXT/UTF8
Codec ID/Info : UTF-8 Plain Text
Language : English
Default : No
Forced : No
Menu
00:00:00.000 : en:Chapter 01
00:08:18.790 : en:Chapter 02
00:14:13.186 : en:Chapter 03
00:18:07.086 : en:Chapter 04
00:24:55.494 : en:Chapter 05
00:30:45.343 : en:Chapter 06
00:36:35.235 : en:Chapter 07
00:41:00.083 : en:Chapter 08
00:45:56.504 : en:Chapter 09
00:49:24.295 : en:Chapter 10
00:55:22.611 : en:Chapter 11
00:59:36.823 : en:Chapter 12
01:04:43.671 : en:Chapter 13
01:12:35.851 : en:Chapter 14
01:17:32.898 : en:Chapter 15
01:22:18.517 : en:Chapter 16
01:27:45.594 : en:Chapter 17
01:34:05.807 : en:Chapter 18
01:36:46.634 : en:Chapter 19
01:39:50.902 : en:Chapter 20
01:43:34.375 : en:Chapter 21
01:49:57.382 : en:Chapter 22
01:55:08.360 : en:Chapter 23
01:57:21.660 : en:Chapter 24
02:03:50.548 : en:Chapter 25
02:07:56.711 : en:Chapter 26
02:10:59.101 : en:Chapter 27
02:12:54.091 : en:Chapter 28

x264

x264 [info]: frame I:2306 Avg QP:17.06 size: 50760
x264 [info]: frame P:46134 Avg QP:18.97 size: 17949
x264 [info]: frame B:158623 Avg QP:21.35 size: 5041
x264 [info]: consecutive B-frames: 2.9% 2.6% 8.6% 24.5% 17.6% 31.2% 5.8% 1.8% 1.4% 0.9% 0.8% 1.3% 0.5% 0.3%
x264 [info]: mb I I16..4: 4.1% 75.7% 20.2%
x264 [info]: mb P I16..4: 0.8% 11.6% 2.0% P16..4: 35.6% 28.3% 15.5% 0.0% 0.0% skip: 6.0%
x264 [info]: mb B I16..4: 0.1% 0.9% 0.2% B16..8: 39.0% 11.2% 3.0% direct: 4.8% skip:40.8% L0:41.5% L1:44.1% BI:14.3%
x264 [info]: 8x8 transform intra:78.8% inter:66.9%
x264 [info]: coded y,uvDC,uvAC intra: 90.0% 88.5% 66.6% inter: 20.0% 18.7% 4.8%
x264 [info]: i16 v,h,dc,p: 13% 14% 8% 65%
x264 [info]: i8 v,h,dc,ddl,ddr,vr,hd,vl,hu: 10% 9% 4% 10% 14% 13% 14% 12% 14%
x264 [info]: i4 v,h,dc,ddl,ddr,vr,hd,vl,hu: 8% 7% 3% 11% 17% 15% 15% 12% 14%
x264 [info]: i8c dc,h,v,p: 41% 22% 18% 19%
x264 [info]: Weighted P-Frames: Y:8.0% UV:4.7%
x264 [info]: ref P L0: 52.0% 13.0% 14.7% 6.2% 4.3% 2.9% 2.3% 1.4% 1.2% 1.0% 0.9% 0.1% 0.0%
x264 [info]: ref B L0: 77.4% 10.5% 4.9% 2.5% 1.6% 1.1% 0.9% 0.6% 0.4% 0.1%
x264 [info]: ref B L1: 94.3% 5.7%
x264 [info]: kb/s:1616.24

Скриншоты

с названием

[Profile]  [PM] 
Display posts:    
Reply to topic

Current time is: 21-Apr 10:49

All times are UTC + 2



You cannot post new topics in this forum
You cannot reply to topics in this forum
You cannot edit your posts in this forum
You cannot delete your posts in this forum
You cannot vote in polls in this forum
You cannot attach files in this forum
You cannot download files in this forum