Первый мститель: Противостояние / Captain America: Civil War (Джо Руссо / Joe Russo, Энтони Руссо / Anthony Russo) [2016, США, фантастика, боевик, триллер, приключения, BDRip] [IMAX Edition] MVO (FocusStudio)

Reply to topic
 
Author
Message

Satyr ®

Gender: Unknown

Longevity: 10 years

Posts: 12852

Reputation: 54 [+] [-]

Satyr · Post 11-Sep-2016 01:20

[Quote] 

Первый мститель: Противостояние / Captain America: Civil War[IMAX Edition] Страна: США
Жанр: фантастика, боевик, триллер, приключения
Год выпуска: 2016
Продолжительность: 02:27:42
Перевод: Профессиональный (многоголосый закадровый) - (FocusStudio)
Cубтитры: нет
Оригинальная аудиодорожка: нет
Режиссер: Джо Руссо / Joe Russo, Энтони Руссо / Anthony Russo
В ролях: Крис Эванс, Роберт Дауни мл., Скарлетт Йоханссон, Себастьян Стэн, Энтони Маки, Дон Чидл, Джереми Реннер, Чедвик Боузман
Описание: Капитан Америка руководит Мстителями. Команда становится участниками крупномасштабного разрушительного инцидента, последствия которого скажутся на расстановке сил в мире. Правительство принимает решение: регулировать действия супергероев – всех, кто наделен особыми способностями. Введен некий акт регистрации супергеройских личностей, которых обязуют работать под началом руководства страны. Стив Роджерс категорически не согласен с новыми правилами. Новый закон для него – свидетельство ущемления правительством гражданских прав. Герой восстает против нововведений, и за ним идут его сподвижники. Тони Старк – наоборот, приветствует новые правила и возглавляет тех, кто согласен с его убеждениями. В стане Мстителей раскол, гражданская война развернется нешуточная. Тем временем Барон Земо строит свои коварные планы, рассчитывая на противоборство супергероев друг с другом, что ослабляет обе стороны…
Сэмпл: http://multi-up.com/1117131
Качество видео: BDRip
Исходник: [CAPTAIN_AMERICA_CIVIL_WAR_3D_REMUX_HDCLUB]
Формат видео: AVI
Видео: 720x384 (1.88:1), 23.976 fps, XviD build 65 ~1618 kbps avg, 0.24 bit/pixel
Аудио RUS: 48 kHz, AC3 Dolby Digital, 3/2 (L,C,R,l,r) + LFE ch, ~448 kbps
Rip by Ториял для

MediaInfo

Format : AVI
Format/Info : Audio Video Interleave
Format profile : OpenDML
File size : 2.14 GiB
Duration : 2h 27mn
Overall bit rate : 2 073 Kbps
Writing application : VirtualDubMod 1.5.10.3 | www.virtualdub-fr.org || (build 2550/release)
Writing library : VirtualDubMod build 2550/release
Video
ID : 0
Format : MPEG-4 Visual
Format profile : Advanced Simple@L5
Format settings, BVOP : 1
Format settings, QPel : No
Format settings, GMC : No warppoints
Format settings, Matrix : Custom
Codec ID : XVID
Codec ID/Hint : XviD
Duration : 2h 27mn
Bit rate : 1 613 Kbps
Width : 720 pixels
Height : 384 pixels
Display aspect ratio : 1.85:1
Frame rate : 23.976 (23976/1000) fps
Color space : YUV
Chroma subsampling : 4:2:0
Bit depth : 8 bits
Scan type : Progressive
Compression mode : Lossy
Bits/(Pixel*Frame) : 0.243
Stream size : 1.67 GiB (78%)
Writing library : XviD 65
Audio
ID : 1
Format : AC-3
Format/Info : Audio Coding 3
Mode extension : CM (complete main)
Format settings, Endianness : Big
Codec ID : 2000
Duration : 2h 27mn
Bit rate mode : Constant
Bit rate : 448 Kbps
Channel(s) : 6 channels
Channel positions : Front: L C R, Side: L R, LFE
Sampling rate : 48.0 KHz
Frame rate : 31.250 fps (1536 spf)
Compression mode : Lossy
Stream size : 473 MiB (22%)
Alignment : Split accross interleaves
Interleave, duration : 42 ms (1.00 video frame)
Interleave, preload duratio : 500 ms

Скриншоты

[Profile]  [PM] 
Display posts:    
Reply to topic

Current time is: 21-Apr 11:08

All times are UTC + 2



You cannot post new topics in this forum
You cannot reply to topics in this forum
You cannot edit your posts in this forum
You cannot delete your posts in this forum
You cannot vote in polls in this forum
You cannot attach files in this forum
You cannot download files in this forum