Отмель / The Shallows (Хауме Кольет-Серра / Jaume Collet-Serra) [2016, США, Ужасы, триллер, драма, WEB-DLRip] Dub (iTunes) + Original (Eng) + Subs (Rus, Eng)

Reply to topic
 
Author
Message

Satyr ®

Gender: Unknown

Longevity: 10 years

Posts: 13513

Reputation: 54 [+] [-]

Satyr · Post 11-Sep-2016 01:20

[Quote] 

Отмель / The Shallows- Год выхода: 2016
Выпущено: США / Columbia Pictures
Жанр: ужасы, триллер, драма
Продолжительность: 01:26:12
Перевод: Профессиональный (полное дублирование)
Субтитры: Русские (форсированные + полные), Английские (форсированные + полные) (внешние.srt*)
Оригинальная аудиодорожка: Английская-Режиссер:
Хауме Кольет-Серра / Jaume Collet-Serra-В ролях:
Блейк Лайвли, Оскар Хаэнада, Бретт Каллен, Седона Ледже, Пабло Кальва, Диего Эспехель, Джанелл Бэйли, Ава Дин, Челси Муди, Салли Сигалл,-О фильме:
Бескрайний океан, безлюдный пляж и идеальная погода для серфингистов в поисках хорошей волны. Казалось бы, ничто не предвещает беды для очаровательной любительницы серфинга в одиночку. Разве что свидание тет-а-тет с гигантской акулой, которая загонит спортсменку на песчаную отмель и не отступит до тех пор, пока не получит своё.-Релиз групп | | IMDB | КиноПоиск | Сэмпл |-Качество: WEB-DLRip [WEB_DL_1080p]
Формат: AVI
Видео: 704x288 (2.44:1), 23.976 fps, XviD build 67 ~2027 kbps avg, 0.42 bit/pixel
Аудио #1: 48 kHz, AC3 Dolby Digital, 3/2 (L,C,R,l,r) + LFE ch, ~384 kbps avg (RUS) - iTunes Russia
Аудио #2: 48 kHz, AC3 Dolby Digital, 2/0 (L,R) ch, ~192.00 kbps avg (ENG) отдельно-

Скриншоты

-

MediaInfo

Общее
Полное имя                               : D:\Otmel`_2016_WEB-DLRip_by_Dalemake.avi
Формат                                   : AVI
Формат/Информация                        : Audio Video Interleave
Размер файла                             : 1,46 Гбайт
Продолжительность                        : 1 ч. 26 м.
Общий поток                              : 2421 Кбит/сек
Программа кодирования                    : VirtualDubMod 1.5.10.3 | www.virtualdub-fr.org || (build 2550/release)
Библиотека кодирования                   : VirtualDubMod build 2550/release
Видео
Идентификатор                            : 0
Формат                                   : MPEG-4 Visual
Профиль формата                          : Advanced Simple@L5
Параметр BVOP формата                    : 1
Параметр QPel формата                    : Нет
Параметр GMC формата                     : Без точки перехода
Параметр матрицы формата                 : Выборочная
Идентификатор кодека                     : XVID
Идентификатор кодека/Подсказка           : XviD
Продолжительность                        : 1 ч. 26 м.
Битрейт                                  : 2027 Кбит/сек
Ширина                                   : 704 пикселя
Высота                                   : 288 пикселей
Соотношение сторон                       : 2,40:1
Частота кадров                           : 23,976 кадра/сек
Цветовое пространство                    : YUV
Субдискретизация насыщенности            : 4:2:0
Битовая глубина                          : 8 бит
Тип развёртки                            : Прогрессивная
Метод сжатия                             : С потерями
Бит/(Пиксели*Кадры)                      : 0.417
Размер потока                            : 1,22 Гбайт (84%)
Библиотека кодирования                   : XviD 67
Аудио
Идентификатор                            : 1
Формат                                   : AC-3
Формат/Информация                        : Audio Coding 3
Расширение режима                        : CM (complete main)
Параметр Endianness формата              : Big
Идентификатор кодека                     : 2000
Продолжительность                        : 1 ч. 26 м.
Вид битрейта                             : Постоянный
Битрейт                                  : 384 Кбит/сек
Каналы                                   : 6 каналов
Расположение каналов                     : Front: L C R, Side: L R, LFE
Частота                                  : 48,0 КГц
Битовая глубина                          : 16 бит
Метод сжатия                             : С потерями
Размер потока                            : 237 Мбайт (16%)
Выравнивание                             : Разделение по промежуткам
Продолжительность промежутка             : 42  мс. (1,00 видеокадр)
Время предзагрузки промежутка            : 500  мс.
-
[Profile]  [PM] 
Display posts:    
Reply to topic

Current time is: 17-Jul 12:17

All times are UTC + 2



You cannot post new topics in this forum
You cannot reply to topics in this forum
You cannot edit your posts in this forum
You cannot delete your posts in this forum
You cannot vote in polls in this forum
You cannot attach files in this forum
You cannot download files in this forum