До встречи с тобой / Me Before You (Теа Шэррок / Thea Sharrock) [2016, США, Великобритания, драма, BDRip-AVC] Dub

Reply to topic
 
Author
Message

Satyr ®

Gender: Unknown

Longevity: 10 years

Posts: 12852

Reputation: 54 [+] [-]

Satyr · Post 11-Sep-2016 01:20

[Quote] 

До встречи с тобой / Me Before You- Страна: США, Великобритания
Жанр: драма
Год выпуска: 2016
Продолжительность: 01:50:14
Перевод: Профессиональный (дублированный) (IP-TV)
Оригинальная аудиодорожка: нет
Cубтитры: нет
Навигация по главам: есть
Режиссер: Теа Шэррок / Thea Sharrock
В ролях: Сэм Клафлин, Эмилия Кларк, Ванесса Кирби, Эйлин Данвуди, Пабло Рэйбоулд, Гэбриэлль Дауни, Саманта Спиро, Брендан Койл
Описание: Лу Кларк знает, сколько шагов от автобусной остановки до ее дома. Она знает, что ей очень нравится работа в кафе и что, скорее всего, она не любит своего бойфренда Патрика. Но Лу не знает, что вот-вот потеряет свою работу и что в ближайшем будущем ей понадобятся все силы, чтобы преодолеть свалившиеся на нее проблемы. Уилл Трейнор знает, что сбивший его мотоциклист отнял у него желание жить. И он точно знает, что надо сделать, чтобы положить конец всему этому. Но он не знает, что Лу скоро ворвется в его мир буйством красок. И они оба не знают, что навсегда изменят жизнь друг друга...- -Качество: BDRip-AVC (исходник - BDRemux|Me.Before.You.2016.REMUX.BluRay.1080p.AVC.DTS-HD.MA5.1-iFT)
Формат видео: MKV
Видео: x264, 960x402 (2.40:1), 23.976 fps, ~1515 kbps, 0.164 bit/pixel
Аудио: 48 kHz, AC3 Dolby Digital, 3/2 (L,C,R,l,r) + LFE ch, ~384 kbps-

MediaInfo | x264 log

Format : Matroska
Format version : Version 4 / Version 2
File size : 1.46 GiB
Duration : 1h 50mn
Overall bit rate : 1 900 Kbps
Movie name : До встречи с тобой / Me Before You (2016) :: AFM ::
Encoded date : UTC 2016-09-06 10:40:18
Writing application : mkvmerge v8.3.0 ('Over the Horizon') 32bit
Writing library : libebml v1.3.1 + libmatroska v1.4.2
Video
ID : 1
Format : AVC
Format/Info : Advanced Video Codec
Format profile : High@L4.1
Format settings, CABAC : Yes
Format settings, ReFrames : 10 frames
Codec ID : V_MPEG4/ISO/AVC
Duration : 1h 50mn
Bit rate : 1 515 Kbps
Width : 960 pixels
Height : 402 pixels
Display aspect ratio : 2.40:1
Frame rate mode : Constant
Frame rate : 23.976 fps
Color space : YUV
Chroma subsampling : 4:2:0
Bit depth : 8 bits
Scan type : Progressive
Bits/(Pixel*Frame) : 0.164
Stream size : 1.14 GiB (78%)
Title : BDRip by AFM [torrentsland.com.ua]
Writing library : x264 core 148 r2705+54 9f484c1 t_mod_Custom [8-bit@all X86_64]
Encoding settings : cabac=1 / ref=10 / deblock=1:-2:-2 / analyse=0x3:0x113 / me=umh / subme=10 / psy=1 / fade_compensate=0.00 / psy_rd=1.00:0.00 / mixed_ref=1 / me_range=32 / chroma_me=1 / trellis=2 / 8x8dct=1 / cqm=0 / deadzone=21,11 / fast_pskip=0 / chroma_qp_offset=-2 / threads=6 / lookahead_threads=1 / sliced_threads=0 / nr=0 / decimate=0 / interlaced=0 / bluray_compat=0 / constrained_intra=0 / fgo=0 / bframes=12 / b_pyramid=2 / b_adapt=2 / b_bias=0 / direct=3 / weightb=1 / open_gop=0 / weightp=2 / keyint=250 / keyint_min=23 / scenecut=40 / intra_refresh=0 / rc_lookahead=40 / rc=2pass / mbtree=0 / bitrate=1515 / ratetol=1.0 / qcomp=0.65 / qpmin=0:0:0 / qpmax=69:69:69 / qpstep=4 / cplxblur=20.0 / qblur=0.5 / vbv_maxrate=50000 / vbv_bufsize=62500 / nal_hrd=none / filler=0 / ip_ratio=1.35 / pb_ratio=1.30 / aq=3:0.90 / aq-sensitivity=10.00 / aq-factor=1.00:1.00:1.00 / aq2=0 / aq3=0
Language : English
Default : Yes
Forced : No
Audio
ID : 2
Format : AC-3
Format/Info : Audio Coding 3
Mode extension : CM (complete main)
Format settings, Endianness : Big
Codec ID : A_AC3
Duration : 1h 50mn
Bit rate mode : Constant
Bit rate : 384 Kbps
Channel(s) : 6 channels
Channel positions : Front: L C R, Side: L R, LFE
Sampling rate : 48.0 KHz
Compression mode : Lossy
Stream size : 303 MiB (20%)
Title : Dub, AC3 5.1 ~384 kbps
Language : Russian
Default : Yes
Forced : No
Menu
00:00:00.000 : en:Chapter 1
00:12:40.967 : en:Chapter 2
00:20:01.575 : en:Chapter 3
00:29:06.243 : en:Chapter 4
00:39:38.416 : en:Chapter 5
00:49:13.867 : en:Chapter 6
01:01:15.545 : en:Chapter 7
01:10:16.795 : en:Chapter 8
01:19:16.417 : en:Chapter 9
01:32:06.479 : en:Chapter 10
01:37:58.329 : en:Chapter 11
01:45:55.349 : en:Chapter 12

x264

x264 [info]: frame I:1432 Avg QP:14.85 size: 68498
x264 [info]: frame P:32910 Avg QP:18.23 size: 18637
x264 [info]: frame B:124247 Avg QP:20.07 size: 4348
x264 [info]: consecutive B-frames: 1.8% 2.1% 5.0% 25.1% 18.5% 29.6% 6.2% 7.5% 1.4% 0.5% 0.4% 1.3% 0.6%
x264 [info]: mb I I16..4: 3.9% 70.0% 26.1%
x264 [info]: mb P I16..4: 0.5% 4.9% 1.7% P16..4: 37.7% 30.4% 18.9% 0.0% 0.0% skip: 5.8%
x264 [info]: mb B I16..4: 0.1% 0.4% 0.2% B16..8: 36.7% 11.6% 3.5% direct: 3.7% skip:43.9% L0:43.5% L1:43.9% BI:12.6%
x264 [info]: 8x8 transform intra:68.3% inter:52.8%
x264 [info]: direct mvs spatial:98.1% temporal:1.9%
x264 [info]: coded y,uvDC,uvAC intra: 84.3% 87.4% 73.1% inter: 17.9% 15.7% 9.3%
x264 [info]: i16 v,h,dc,p: 51% 13% 8% 28%
x264 [info]: i8 v,h,dc,ddl,ddr,vr,hd,vl,hu: 22% 10% 10% 7% 10% 10% 10% 10% 11%
x264 [info]: i4 v,h,dc,ddl,ddr,vr,hd,vl,hu: 36% 6% 4% 7% 10% 10% 9% 9% 9%
x264 [info]: i8c dc,h,v,p: 39% 22% 26% 13%
x264 [info]: Weighted P-Frames: Y:2.7% UV:1.0%
x264 [info]: ref P L0: 49.2% 11.4% 15.7% 6.1% 5.2% 3.7% 3.5% 1.8% 1.9% 1.6% 0.1% 0.0%
x264 [info]: ref B L0: 68.9% 12.7% 6.8% 3.7% 2.7% 2.2% 1.8% 0.9% 0.3%
x264 [info]: ref B L1: 93.0% 7.0%
x264 [info]: kb/s:1513.84

Скриншоты

с названием

[Profile]  [PM] 
Display posts:    
Reply to topic

Current time is: 21-Apr 10:10

All times are UTC + 2



You cannot post new topics in this forum
You cannot reply to topics in this forum
You cannot edit your posts in this forum
You cannot delete your posts in this forum
You cannot vote in polls in this forum
You cannot attach files in this forum
You cannot download files in this forum