Шоколад / Chocolat (Рошди Зем / Roschdy Zem) [2016, Франция, драма, HDRip] Dub (iTunes)

Reply to topic
 
Author
Message

Satyr ®

Gender: Unknown

Longevity: 10 years

Posts: 12852

Reputation: 54 [+] [-]

Satyr · Post 11-Sep-2016 01:20

[Quote] 

Шоколад / Chocolat
Страна: США
Жанр: Драма
Год выпуска: 2016
Продолжительность: 01:59:05
Перевод: Профессиональный (полное дублирование) | iTunes
Cубтитры: нет
Режиссер: Рошди Зем / Roschdy Zem
В ролях: Омар Си (Rafael Padilla dit Chocolat), Джеймс Тьерре (George Footit dit Footit), Клотильда Эсме (Marie Hecquet), Оливье Гурме (Joseph Oller), Фредерик Пьеро (Théodore Delvaux), Ноэми Львовски (Yvonne Delvaux), Элис де Ланкесэ (Camille), Алекс Дека (Victor), Оливье Рабурден (Firmin Gemier), Тибо де Монталембер (Jules Moy), Элена Субейран (Régina Badet), Ксавье Бовуа (Jacques Potin)
Описание: Это история первого во Франции чернокожего клоуна, выступавшего в тандеме с белым клоуном, вышедшим было в тираж, а с появлением нового партнера вернувшим себе былую славу. Их номера были чрезвычайно популярны в конце XIX века, но интерес к ним был востребован преимущественно из-за того, что белый клоун издевался над чернокожим.

Сэмпл
Релиз от Megapeer
Качество видео: HDRip (Исх. Sh0k0l4d.2016.D.BDRip.720p)
Формат видео: AVI
Видео: 624x336 (1.86:1), 24 fps, XviD build 73 ~743 kbps avg, 0.17 bit/pixel
Аудио: 48.0 kHz, MP3, 2/0 ch, 128 kbps

MediaInfo

ОбщееПолное имя                               : D:\Chocolat.2016.HDRip.745MB.MegaPeer.aviФормат                                   : AVIФормат/Информация                        : Audio Video InterleaveРазмер файла                             : 747 МбайтПродолжительность                        : 1 ч. 59 м.Общий поток                              : 877 Кбит/сек
ВидеоИдентификатор : 0Формат : MPEG-4 VisualПрофиль формата : Advanced Simple@L5Параметр BVOP формата : 1Параметр QPel формата : НетПараметр GMC формата : Без точки переходаПараметр матрицы формата : ВыборочнаяИдентификатор кодека : XVIDИдентификатор кодека/Подсказка : XviDПродолжительность : 1 ч. 59 м.Битрейт : 743 Кбит/секШирина : 624 пикселяВысота : 336 пикселейСоотношение сторон : 1,85:1Частота кадров : 24,000 кадра/секЦветовое пространство : YUVСубдискретизация насыщенности : 4:2:0Битовая глубина : 8 битТип развёртки : ПрогрессивнаяМетод сжатия : С потерямиБит/(Пиксели*Кадры) : 0.148Размер потока : 633 Мбайт (85%)Библиотека кодирования : XviD 73
АудиоИдентификатор : 1Формат : MPEG AudioВерсия формата : Version 1Профиль формата : Layer 3Режим : Joint stereoРасширение режима : MS StereoИдентификатор кодека : 55Идентификатор кодека/Подсказка : MP3Продолжительность : 1 ч. 59 м.Вид битрейта : ПостоянныйБитрейт : 128 Кбит/секКаналы : 2 каналаЧастота : 48,0 КГцМетод сжатия : С потерямиРазмер потока : 109 Мбайт (15%)Выравнивание : Соединение по промежуткамПродолжительность промежутка : 167 мс. (4,00 видеокадра)Время предзагрузки промежутка : 216 мс.Заголовок : iTunesБиблиотека кодирования : LAME3.99rНастройки программы : -m j -V 4 -q 2 -lowpass 17 -b 128

Скриншоты

[Profile]  [PM] 
Display posts:    
Reply to topic

Current time is: 21-Apr 10:41

All times are UTC + 2



You cannot post new topics in this forum
You cannot reply to topics in this forum
You cannot edit your posts in this forum
You cannot delete your posts in this forum
You cannot vote in polls in this forum
You cannot attach files in this forum
You cannot download files in this forum