Бэтмен против Супермена: На заре справедливости / Batman v Superman: Dawn of Justice (Зак Снайдер / Zack Snyder) [2016, США, фантастика, боевик, приключения, BDRip-AVC] [Расширенная версия / Ultimate Edition] Dub + Original + Sub (rus, eng)

Reply to topic
 
Author
Message

Satyr ®

Gender: Unknown

Longevity: 15 years

Posts: 22031

Reputation: 56 [+] [-]

Satyr · Post 11-Sep-2016 01:20

[Quote] 

Бэтмен против Супермена: На заре справедливости / Batman v Superman: Dawn of JusticeРасширенная версия / Ultimate Edition«Who will win?»- Страна: США
Жанр: фантастика, боевик, приключения
Год выпуска: 2016
Продолжительность: 03:02:33
Перевод: Профессиональный (дублированный) (BD CEE) + вставки MVO FocusStudio на эпизоды расширенной версии - отсюда
Оригинальная аудиодорожка: английский
Cубтитры: русские (форс., полные) английские (полные, SDH)
Навигация по главам: есть
Режиссер: Зак Снайдер / Zack Snyder
В ролях: Генри Кавилл (Clark Kent / Superman), Бен Аффлек (Bruce Wayne / Batman), Галь Гадот (Diana Prince / Wonder Woman), Эми Адамс (Lois), Джесси Айзенберг (Lex Luthor), Джереми Айронс (Alfred), Дайан Лэйн (Martha Kent), Лоренс Фишбёрн (Perry White), Холли Хантер (Senator Finch), Скут МакНэри (Wallace Keefe), Каллэн Мулвей (Anatoli Knyazev), Тао Окамото (Mercy Graves)
Описание: Опасаясь, что действия богоподобного супергероя так и останутся бесконтрольными, грозный и могущественный страж Готэм Сити бросает вызов самому почитаемому в наши дни спасителю Метрополиса, в то время как весь остальной мир решает, какой герой ему по-настоящему нужен. И пока Бэтмен и Супермен пребывают в состоянии войны друг с другом, возникает новая угроза, которая ставит человечество под самую большую опасность, с которой оно когда-либо сталкивалось.- -Качество: BDRip-AVC (исходник - Blu-ray)
Формат видео: MKV
Видео: x264, 1152x480 (2.40:1), 23,976 fps, ~4022 kbps, 0.303 bit/pixel
Аудио 1: 48 kHz, AC3 Dolby Digital, 3/2 (L,C,R,l,r) + LFE ch, ~448 kbps [русский]
Аудио 2: 48 kHz, AC3 Dolby Digital, 3/2 (L,C,R,l,r) + LFE ch, ~448 kbps [английский]
Формат субтитров: softsub (SRT)-

MediaInfo | x264 log

Format : Matroska
Format version : Version 4 / Version 2
File size : 6.40 GiB
Duration : 3h 2mn
Overall bit rate : 5 018 Kbps
Movie name : Бэтмен против Супермена: На заре справедливости / Batman v Superman: Dawn of Justice (2016) [ULTIMATE] :: AFM ::
Encoded date : UTC 2016-09-05 12:01:55
Writing application : mkvmerge v8.3.0 ('Over the Horizon') 32bit
Writing library : libebml v1.3.1 + libmatroska v1.4.2
Video
ID : 1
Format : AVC
Format/Info : Advanced Video Codec
Format profile : High@L4.1
Format settings, CABAC : Yes
Format settings, ReFrames : 11 frames
Codec ID : V_MPEG4/ISO/AVC
Duration : 3h 2mn
Bit rate : 4 022 Kbps
Width : 1 152 pixels
Height : 480 pixels
Display aspect ratio : 2.40:1
Frame rate mode : Constant
Frame rate : 23.976 fps
Color space : YUV
Chroma subsampling : 4:2:0
Bit depth : 8 bits
Scan type : Progressive
Bits/(Pixel*Frame) : 0.303
Stream size : 5.13 GiB (80%)
Title : BDRip by AFM [torrentsland.com.ua]
Writing library : x264 core 148 r2705+54 9f484c1 t_mod_Custom [8-bit@all X86_64]
Encoding settings : cabac=1 / ref=11 / deblock=1:-2:-2 / analyse=0x3:0x113 / me=umh / subme=10 / psy=1 / fade_compensate=0.00 / psy_rd=1.00:0.00 / mixed_ref=1 / me_range=32 / chroma_me=1 / trellis=2 / 8x8dct=1 / cqm=0 / deadzone=21,11 / fast_pskip=0 / chroma_qp_offset=-2 / threads=6 / lookahead_threads=1 / sliced_threads=0 / nr=0 / decimate=1 / interlaced=0 / bluray_compat=0 / constrained_intra=0 / fgo=0 / bframes=14 / b_pyramid=2 / b_adapt=2 / b_bias=0 / direct=1 / weightb=1 / open_gop=0 / weightp=2 / keyint=250 / keyint_min=23 / scenecut=40 / intra_refresh=0 / rc_lookahead=40 / rc=crf / mbtree=0 / crf=18.9000 / qcomp=0.70 / qpmin=0:0:0 / qpmax=69:69:69 / qpstep=4 / vbv_maxrate=50000 / vbv_bufsize=62500 / crf_max=0.0 / nal_hrd=none / filler=0 / ip_ratio=1.25 / pb_ratio=1.20 / aq=3:0.80 / aq-sensitivity=10.00 / aq-factor=1.00:1.00:1.00 / aq2=0 / aq3=0 / zones=251358,262624,q=27
Language : English
Default : Yes
Forced : No
Audio #1
ID : 2
Format : AC-3
Format/Info : Audio Coding 3
Mode extension : CM (complete main)
Format settings, Endianness : Big
Codec ID : A_AC3
Duration : 3h 2mn
Bit rate mode : Constant
Bit rate : 448 Kbps
Channel(s) : 6 channels
Channel positions : Front: L C R, Side: L R, LFE
Sampling rate : 48.0 KHz
Compression mode : Lossy
Stream size : 585 MiB (9%)
Title : Dub, AC3 5.1 ~448 kbps
Language : Russian
Default : Yes
Forced : No
Audio #2
ID : 3
Format : AC-3
Format/Info : Audio Coding 3
Mode extension : CM (complete main)
Format settings, Endianness : Big
Codec ID : A_AC3
Duration : 3h 2mn
Bit rate mode : Constant
Bit rate : 448 Kbps
Channel(s) : 6 channels
Channel positions : Front: L C R, Side: L R, LFE
Sampling rate : 48.0 KHz
Compression mode : Lossy
Stream size : 585 MiB (9%)
Title : Original, AC3 5.1 ~448 kbps
Language : English
Default : No
Forced : No
Text #1
ID : 4
Format : UTF-8
Codec ID : S_TEXT/UTF8
Codec ID/Info : UTF-8 Plain Text
Title : forced
Language : Russian
Default : Yes
Forced : No
Text #2
ID : 5
Format : UTF-8
Codec ID : S_TEXT/UTF8
Codec ID/Info : UTF-8 Plain Text
Language : Russian
Default : No
Forced : No
Text #3
ID : 6
Format : UTF-8
Codec ID : S_TEXT/UTF8
Codec ID/Info : UTF-8 Plain Text
Language : English
Default : No
Forced : No
Text #4
ID : 7
Format : UTF-8
Codec ID : S_TEXT/UTF8
Codec ID/Info : UTF-8 Plain Text
Title : SDH
Language : English
Default : No
Forced : No
Menu
00:00:00.000 : en:Chapter 1
00:10:10.651 : en:Chapter 2
00:27:00.660 : en:Chapter 3
00:37:49.225 : en:Chapter 4
00:46:54.520 : en:Chapter 5
01:02:04.971 : en:Chapter 6
01:14:10.612 : en:Chapter 7
01:28:07.115 : en:Chapter 8
01:41:46.642 : en:Chapter 9
01:53:52.617 : en:Chapter 10
02:02:58.079 : en:Chapter 11
02:15:04.054 : en:Chapter 12
02:27:55.074 : en:Chapter 13
02:36:51.443 : en:Chapter 14
02:48:27.514 : en:Chapter 15
02:54:43.764 : en:Chapter 16

x264

x264 [info]: frame I:1743 Avg QP:17.34 size: 62605
x264 [info]: frame P:56318 Avg QP:18.62 size: 35115
x264 [info]: frame B:204563 Avg QP:20.40 size: 17373
x264 [info]: consecutive B-frames: 2.7% 2.3% 6.7% 20.0% 16.8% 31.3% 6.6% 6.5% 2.6% 0.9% 0.9% 1.0% 0.6% 0.6% 0.3%
x264 [info]: mb I I16..4: 6.9% 76.8% 16.3%
x264 [info]: mb P I16..4: 1.3% 20.7% 1.8% P16..4: 31.8% 24.9% 13.2% 0.0% 0.0% skip: 6.3%
x264 [info]: mb B I16..4: 0.1% 3.2% 0.2% B16..8: 41.7% 14.3% 5.2% direct: 7.2% skip:28.1% L0:45.2% L1:44.4% BI:10.5%
x264 [info]: 8x8 transform intra:87.8% inter:62.2%
x264 [info]: coded y,uvDC,uvAC intra: 89.8% 74.3% 46.3% inter: 37.3% 17.8% 1.8%
x264 [info]: i16 v,h,dc,p: 37% 17% 10% 35%
x264 [info]: i8 v,h,dc,ddl,ddr,vr,hd,vl,hu: 8% 8% 12% 9% 13% 12% 13% 11% 13%
x264 [info]: i4 v,h,dc,ddl,ddr,vr,hd,vl,hu: 8% 7% 4% 11% 16% 14% 15% 11% 14%
x264 [info]: i8c dc,h,v,p: 38% 28% 18% 17%
x264 [info]: Weighted P-Frames: Y:7.4% UV:4.9%
x264 [info]: ref P L0: 44.6% 9.7% 17.0% 7.3% 5.7% 4.2% 3.6% 2.2% 2.0% 1.7% 1.7% 0.3% 0.0%
x264 [info]: ref B L0: 71.2% 11.8% 6.2% 3.2% 2.3% 1.9% 1.5% 1.0% 0.6% 0.2%
x264 [info]: ref B L1: 93.7% 6.3%
x264 [info]: kb/s:4119.55

Скриншоты

с названием

~~ Source ~~

~~ Rip ~~
99 отличий Ultimate Edition
[Profile]  [PM] 
Display posts:    
Reply to topic

Current time is: 19-Jul 05:43

All times are UTC + 2



You cannot post new topics in this forum
You cannot reply to topics in this forum
You cannot edit your posts in this forum
You cannot delete your posts in this forum
You cannot vote in polls in this forum
You cannot attach files in this forum
You cannot download files in this forum