Капитан Фантастик / Captain Fantastic (Мэтт Росс / Matt Ross) [2016, США, Драма, мелодрама, комедия, WEB-DLRip-AVC] MVO (iTunes)

Reply to topic
 
Author
Message

Satyr ®

Gender: Unknown

Longevity: 10 years

Posts: 12858

Reputation: 54 [+] [-]

Satyr · Post 11-Sep-2016 01:20

[Quote] 

Капитан Фантастик / Captain Fantastic
«Он подготовил их ко всему, кроме настоящей жизни»- Год выхода: 2016
Выпущено: США / Electric City Entertainment, ShivHans Pictures
Жанр: драма, мелодрама, комедия
Продолжительность: 01:58:55
Перевод: Профессиональный (многоголосый закадровый)
Субтитры: нет
Навигация по главам: Есть (19 глав)-Режиссер:
Мэтт Росс / Matt Ross-В ролях:
Вигго Мортенсен, Джордж МакКэй, Саманта Ислер, Анналиса Бассо, Николас Хэмилтон, Шри Крукс, Чарли Шотуэлл, Трин Миллер, Кэтрин Хан, Стив Зан-О фильме:
Они говорят на нескольких языках, знают квантовую физику и разбираются в философии. Они умеют охотиться и обращаться с оружием. Они живут в лесу в полной гармонии с природой. Лишь стечение обстоятельств заставляет их покинуть родной дом и отправиться в большой город. Что будет, когда они столкнутся с цивилизацией, когда на них обрушится первая любовь и мир гаджетов и социальных сетей?-Релиз групп | | IMDB | КиноПоиск | Сэмпл |-Качество: WEB-DLRip-AVC [Kap1taH.FaHtast1k.2016.P.WEB-DL.1080p]
Формат: MKV
Видео: 896x376 (2.40:1), 24.000 fps, x264 ~1380 kbps avg, 0.171 bit/pixel
Аудио: 48 kHz, AC3 Dolby Digital, 3/2 (L,C,R,l,r) + LFE ch, ~384 kbps - iTunes Russia-

Скриншоты

-

MediaInfo

Общее
Полное имя                               : D:\Captain Fantastic_2016_WEB-DLRip-AVC_iT_by_Dalemake.mkv
Формат                                   : Matroska
Версия формата                           : Version 4 / Version 2
Размер файла                             : 1,47 Гбайт
Продолжительность                        : 1 ч. 58 м.
Общий поток                              : 1765 Кбит/сек
Дата кодирования                         : UTC 2016-09-02 06:11:34
Программа кодирования                    : mkvmerge v7.8.0 ('River Man') 32bit built on Apr  3 2015 12:11:22
Библиотека кодирования                   : libebml v1.3.1 + libmatroska v1.4.2
DURATION                                 : 01:58:54.560000000
NUMBER_OF_FRAMES                         : 222955
NUMBER_OF_BYTES                          : 342458880
_STATISTICS_WRITING_APP                  : mkvmerge v7.8.0 ('River Man') 32bit built on Apr  3 2015 12:11:22
_STATISTICS_WRITING_DATE_UTC             : 2016-09-02 06:11:34
_STATISTICS_TAGS                         : BPS DURATION NUMBER_OF_FRAMES NUMBER_OF_BYTES
Видео
Идентификатор                            : 1
Формат                                   : AVC
Формат/Информация                        : Advanced Video Codec
Профиль формата                          : High@L4.1
Параметр CABAC формата                   : Да
Параметр ReFrames формата                : 12 кадров
Идентификатор кодека                     : V_MPEG4/ISO/AVC
Продолжительность                        : 1 ч. 58 м.
Битрейт                                  : 1380 Кбит/сек
Ширина                                   : 896 пикселей
Высота                                   : 376 пикселей
Соотношение сторон                       : 2,40:1
Частота кадров                           : 24,000 кадра/сек
Цветовое пространство                    : YUV
Субдискретизация насыщенности            : 4:2:0
Битовая глубина                          : 8 бит
Тип развёртки                            : Прогрессивная
Бит/(Пиксели*Кадры)                      : 0.171
Размер потока                            : 1,12 Гбайт (76%)
Заголовок                                : [Captain Fantastic_2016_All Films Rutracker.org_by Dalemake]
Библиотека кодирования                   : x264 core 146 r2538 121396c
Настройки программы                      : cabac=1 / ref=12 / deblock=1:-2:-1 / analyse=0x3:0x113 / me=umh / subme=11 / psy=1 / psy_rd=1.00:0.00 / mixed_ref=1 / me_range=48 / chroma_me=1 / trellis=2 / 8x8dct=1 / cqm=0 / deadzone=21,11 / fast_pskip=0 / chroma_qp_offset=-2 / threads=6 / lookahead_threads=1 / sliced_threads=0 / nr=0 / decimate=0 / interlaced=0 / bluray_compat=0 / constrained_intra=0 / bframes=10 / b_pyramid=2 / b_adapt=2 / b_bias=0 / direct=3 / weightb=1 / open_gop=0 / weightp=2 / keyint=240 / keyint_min=23 / scenecut=40 / intra_refresh=0 / rc_lookahead=60 / rc=2pass / mbtree=0 / bitrate=1380 / ratetol=1.0 / qcomp=0.60 / qpmin=0 / qpmax=69 / qpstep=4 / cplxblur=20.0 / qblur=0.5 / vbv_maxrate=50000 / vbv_bufsize=62500 / nal_hrd=none / filler=0 / ip_ratio=1.25 / pb_ratio=1.20 / aq=1:1.00
Default                                  : Да
Forced                                   : Нет
Аудио
Идентификатор                            : 2
Формат                                   : AC-3
Формат/Информация                        : Audio Coding 3
Расширение режима                        : CM (complete main)
Параметр Endianness формата              : Big
Идентификатор кодека                     : A_AC3
Продолжительность                        : 1 ч. 58 м.
Вид битрейта                             : Постоянный
Битрейт                                  : 384 Кбит/сек
Каналы                                   : 6 каналов
Расположение каналов                     : Front: L C R, Side: L R, LFE
Частота                                  : 48,0 КГц
Битовая глубина                          : 16 бит
Метод сжатия                             : С потерями
Размер потока                            : 327 Мбайт (22%)
Заголовок                                : MVO - iTunes Russia
Язык                                     : Russian
Default                                  : Да
Forced                                   : Нет
Меню
00:00:00.000                             : en:Глава 1
00:06:49.416                             : en:Глава 2
00:12:48.082                             : en:Глава 3
00:19:37.748                             : en:Глава 4
00:24:51.998                             : en:Глава 5
00:30:18.748                             : en:Глава 6
00:35:25.164                             : en:Глава 7
00:42:09.747                             : en:Глава 8
00:47:54.330                             : en:Глава 9
00:53:32.913                             : en:Глава 10
00:59:03.829                             : en:Глава 11
01:05:33.329                             : en:Глава 12
01:11:37.537                             : en:Глава 13
01:17:08.620                             : en:Глава 14
01:23:58.245                             : en:Глава 15
01:29:59.536                             : en:Глава 16
01:36:19.494                             : en:Глава 17
01:42:24.494                             : en:Глава 18
01:49:32.785                             : en:Глава 19
-
[Profile]  [PM] 
Display posts:    
Reply to topic

Current time is: 22-Apr 18:13

All times are UTC + 2



You cannot post new topics in this forum
You cannot reply to topics in this forum
You cannot edit your posts in this forum
You cannot delete your posts in this forum
You cannot vote in polls in this forum
You cannot attach files in this forum
You cannot download files in this forum