Крутые меры / Bastille Day (Джеймс Уоткинс / James Watkins) [2016, Великобритания, Франция, США, боевик, драма, BDRip-AVC] VO (Д.Есарев) + Sub (eng)

Reply to topic
 
Author
Message

Satyr ®

Gender: Unknown

Longevity: 11 years

Posts: 15401

Reputation: 55 [+] [-]

Satyr · Post 11-Sep-2016 01:20

[Quote] 

Крутые меры / Bastille Day«Напарников не выбирают»- Страна: Великобритания, Франция, США
Жанр: боевик, драма
Год выпуска: 2016
Продолжительность: 01:31:49
Перевод: Одноголосый закадровый (Д. Есарев) (ненорматив. лексика)
Оригинальная аудиодорожка: нет
Cубтитры: английские (полные, SDH)
Навигация по главам: есть
Режиссер: Джеймс Уоткинс / James Watkins
В ролях: Идрис Эльба, Ричард Мэдден, Келли Райлли, Шарлотта Ле Бон, Анатол Юсеф, Хорхе Леон Мартинес, Карл Фаррер, Хосе Гарсиа, Александр Купер, Эрик Эбони
Описание: Ловкий карманник Майкл Мэйсон привлекает внимание полиции и спецслужб, когда крадет сумку, содержащую гораздо больше, чем просто бумажник. На его след выходит дерзкий и резкий спецагент ЦРУ Шон Брайар. Вдвоем они становятся мишенью тайной преступной организации и в течение суток должны вывести злоумышленников на чистую воду.- -Качество видео: BDRip-AVC (исходник - BDRemux|Bastille.Day.2016.1080p.BluRay.REMUX.AVC.DTS-HD.MA.TrueHD.7.1.Atmos-FGT)
Формат видео: MKV
Видео: x264, 1024x428 (2.40:1), 24.00 fps, ~1749 kbps, 0.166 bit/pixel
Аудио: 48 kHz, AC3 Dolby Digital, 3/2 (L,C,R,l,r) + LFE ch, ~448 kbps
Формат субтитров: softsub (SRT)

MediaInfo | x264 log

Format : Matroska
Format version : Version 4 / Version 2
File size : 1.44 GiB
Duration : 1h 31mn
Overall bit rate : 2 242 Kbps
Movie name : Крутые меры / Bastille Day (2016) :: AFM::
Encoded date : UTC 2016-09-01 11:45:54
Writing application : mkvmerge v8.3.0 ('Over the Horizon') 32bit
Writing library : libebml v1.3.1 + libmatroska v1.4.2
Video
ID : 1
Format : AVC
Format/Info : Advanced Video Codec
Format profile : High@L4.1
Format settings, CABAC : Yes
Format settings, ReFrames : 11 frames
Codec ID : V_MPEG4/ISO/AVC
Duration : 1h 31mn
Bit rate : 1 749 Kbps
Width : 1 024 pixels
Height : 428 pixels
Display aspect ratio : 2.40:1
Frame rate mode : Constant
Frame rate : 24.000 fps
Color space : YUV
Chroma subsampling : 4:2:0
Bit depth : 8 bits
Scan type : Progressive
Bits/(Pixel*Frame) : 0.166
Stream size : 1.12 GiB (78%)
Title : BDRip by AFM [torrentsland.com.ua]
Writing library : x264 core 148 r2705+54 9f484c1 t_mod_Custom [8-bit@all X86_64]
Encoding settings : cabac=1 / ref=11 / deblock=1:-2:-2 / analyse=0x3:0x113 / me=umh / subme=10 / psy=1 / fade_compensate=0.00 / psy_rd=1.00:0.00 / mixed_ref=1 / me_range=32 / chroma_me=1 / trellis=2 / 8x8dct=1 / cqm=0 / deadzone=21,11 / fast_pskip=0 / chroma_qp_offset=-2 / threads=6 / lookahead_threads=1 / sliced_threads=0 / nr=0 / decimate=1 / interlaced=0 / bluray_compat=0 / constrained_intra=0 / fgo=0 / bframes=14 / b_pyramid=2 / b_adapt=2 / b_bias=0 / direct=1 / weightb=1 / open_gop=0 / weightp=2 / keyint=250 / keyint_min=23 / scenecut=40 / intra_refresh=0 / rc_lookahead=40 / rc=crf / mbtree=0 / crf=17.8000 / qcomp=0.65 / qpmin=0:0:0 / qpmax=69:69:69 / qpstep=4 / vbv_maxrate=50000 / vbv_bufsize=62500 / crf_max=0.0 / nal_hrd=none / filler=0 / ip_ratio=1.35 / pb_ratio=1.30 / aq=3:0.80 / aq-sensitivity=10.00 / aq-factor=1.00:1.00:1.00 / aq2=0 / aq3=0
Language : English
Default : Yes
Forced : No
Audio
ID : 2
Format : AC-3
Format/Info : Audio Coding 3
Mode extension : CM (complete main)
Format settings, Endianness : Big
Codec ID : A_AC3
Duration : 1h 31mn
Bit rate mode : Constant
Bit rate : 448 Kbps
Channel(s) : 6 channels
Channel positions : Front: L C R, Side: L R, LFE
Sampling rate : 48.0 KHz
Compression mode : Lossy
Stream size : 294 MiB (20%)
Title : VO (Д. Есарев) AС3 5.1 ~448 kbps
Language : Russian
Default : Yes
Forced : No
Text #1
ID : 3
Format : UTF-8
Codec ID : S_TEXT/UTF8
Codec ID/Info : UTF-8 Plain Text
Language : English
Default : No
Forced : No
Text #2
ID : 4
Format : UTF-8
Codec ID : S_TEXT/UTF8
Codec ID/Info : UTF-8 Plain Text
Title : SDH
Language : English
Default : No
Forced : No
Menu
00:00:00.000 : en:Chapter 01
00:08:06.500 : en:Chapter 02
00:16:39.458 : en:Chapter 03
00:24:20.625 : en:Chapter 04
00:33:04.500 : en:Chapter 05
00:41:04.125 : en:Chapter 06
00:48:37.500 : en:Chapter 07
00:57:03.375 : en:Chapter 08
01:07:59.250 : en:Chapter 09
01:16:54.458 : en:Chapter 10
01:21:42.916 : en:Chapter 11
01:25:27.208 : en:Chapter 12

x264

x264 [info]: frame I:1428 Avg QP:16.22 size: 54854
x264 [info]: frame P:29393 Avg QP:17.80 size: 19507
x264 [info]: frame B:101394 Avg QP:21.12 size: 5742
x264 [info]: consecutive B-frames: 2.8% 3.1% 9.8% 20.9% 20.8% 27.6% 5.6% 1.7% 1.7% 1.1% 0.9% 2.0% 1.2% 0.4% 0.5%
x264 [info]: mb I I16..4: 6.6% 69.8% 23.6%
x264 [info]: mb P I16..4: 1.3% 13.1% 2.8% P16..4: 36.1% 26.5% 13.4% 0.0% 0.0% skip: 6.8%
x264 [info]: mb B I16..4: 0.1% 0.8% 0.3% B16..8: 39.4% 11.5% 3.0% direct: 4.6% skip:40.2% L0:43.4% L1:43.5% BI:13.1%
x264 [info]: 8x8 transform intra:73.9% inter:63.0%
x264 [info]: coded y,uvDC,uvAC intra: 84.4% 79.1% 57.1% inter: 19.4% 13.4% 3.5%
x264 [info]: i16 v,h,dc,p: 35% 16% 6% 43%
x264 [info]: i8 v,h,dc,ddl,ddr,vr,hd,vl,hu: 14% 11% 6% 8% 12% 12% 12% 11% 12%
x264 [info]: i4 v,h,dc,ddl,ddr,vr,hd,vl,hu: 14% 10% 4% 9% 15% 14% 13% 11% 12%
x264 [info]: i8c dc,h,v,p: 39% 25% 21% 15%
x264 [info]: Weighted P-Frames: Y:3.1% UV:1.6%
x264 [info]: ref P L0: 51.7% 10.8% 14.6% 6.1% 4.5% 3.4% 2.8% 1.8% 1.5% 1.4% 1.3% 0.1% 0.0%
x264 [info]: ref B L0: 75.3% 10.5% 5.3% 2.7% 2.0% 1.5% 1.3% 0.8% 0.5% 0.2%
x264 [info]: ref B L1: 94.1% 5.9%
x264 [info]: kb/s:1791.87

Скриншоты

с названием

[Profile]  [PM] 
Display posts:    
Reply to topic

Current time is: 22-Jan 14:28

All times are UTC + 2



You cannot post new topics in this forum
You cannot reply to topics in this forum
You cannot edit your posts in this forum
You cannot delete your posts in this forum
You cannot vote in polls in this forum
You cannot attach files in this forum
You cannot download files in this forum