Полтора шпиона / Central Intelligence (Роусон Маршалл Тёрбер / Rawson Marshall Thurber) [2016, США, Комедия, криминал, боевик WEB-DLRip] Dub (iTunes)

Reply to topic
 
Author
Message

Satyr ®

Gender: Unknown

Longevity: 10 years

Posts: 12852

Reputation: 54 [+] [-]

Satyr · Post 11-Sep-2016 01:20

[Quote] 

Полтора шпиона / Central Intelligence
Страна: США
Жанр: Комедия, криминал, боевик
Год выпуска: 2016
Продолжительность: 01:47:31
Перевод: Профессиональный (дублированный) iTunes
Cубтитры: нет
Режиссер: Роусон Маршалл Тёрбер / Rawson Marshall Thurber
В ролях: Дуэйн Джонсон, Аарон Пол, Кевин Харт, Эми Райан, Райан Хансен, Меган Парк, Бретт Азар, Даниэль Николет, Слэйн, Энтони Молинари
Описание: Главного героя фильма, когда-то воспринимали как настоящую звезду собственной школы. Он всегда был в центре внимания и пользовался популярностью у девчонок. Превратившись во взрослого человека, ему стало везти гораздо меньше. Он мечтал стать крутым парнем, а вместо этого трудится на должности бухгалтера. Его жизнь перестает быть интересной, но однажды все круто меняется. Ему встречается бывший одноклассник, которого никто раньше не уважал. Он был не просто неудачником, но и огромным толстяком, над которым все посмеивались. Что же произошло c неудачливым парнем? Сейчас он работает в секретных структурах и славится как безжалостный убийца. Ему поручают ответственное задание, над которым он работает безукоризненно.
Рейтинг фильма : -- IMDB / 6,5
Премьера (МИР): 10 июня 2016 год
Премьера (РФ): 7 июля 2016 год
Сэмпл: http://sendfile.su/1261615
Качество видео: WEB-DLRip (КinoZal)
Формат видео: AVI
Видео: XviD, 688x288, (2,40:1), 23.976 fps, 838 Кбит/с, 8 бит
Аудио: Русский (MP3, 2 ch, 48,0 KHz, 128 Kbps)

MediaInfo

Общее
Полное имя : F:\Видеофильмы\В и д е о\Полтора шпиона (боевик комедия 2016г).avi
Формат : AVI
Формат/Информация : Audio Video Interleave
Размер файла : 747 Мбайт
Продолжительность : 1 ч. 47 м.
Общий поток : 972 Кбит/сек
Видео
Идентификатор : 0
Формат : MPEG-4 Visual
Профиль формата : Advanced Simple@L5
Параметр BVOP формата : 1
Параметр QPel формата : Нет
Параметр GMC формата : Без точки перехода
Параметр матрицы формата : Выборочная
Идентификатор кодека : XVID
Идентификатор кодека/Подсказка : XviD
Продолжительность : 1 ч. 47 м.
Битрейт : 838 Кбит/сек
Ширина : 688 пикселей
Высота : 288 пикселей
Соотношение сторон : 2,40:1
Частота кадров : 23,976 (24000/1001) кадра/сек
Цветовое пространство : YUV
Субдискретизация насыщенности : 4:2:0
Битовая глубина : 8 бит
Тип развёртки : Прогрессивная
Метод сжатия : С потерями
Бит/(Пиксели*Кадры) : 0.176
Размер потока : 644 Мбайт (86%)
Библиотека кодирования : XviD 73
Аудио
Идентификатор : 1
Формат : MPEG Audio
Версия формата : Version 1
Профиль формата : Layer 3
Режим : Joint stereo
Расширение режима : MS Stereo
Идентификатор кодека : 55
Идентификатор кодека/Подсказка : MP3
Продолжительность : 1 ч. 47 м.
Вид битрейта : Постоянный
Битрейт : 128 Кбит/сек
Каналы : 2 канала
Частота : 48,0 КГц
Метод сжатия : С потерями
Размер потока : 98,4 Мбайт (13%)
Выравнивание : Соединение по промежуткам
Продолжительность промежутка : 167 мс. (4,00 видеокадра)
Время предзагрузки промежутка : 216 мс.
Заголовок : iTunes
Библиотека кодирования : LAME3.99r
Настройки программы : -m j -V 4 -q 2 -lowpass 17 -b 128

Скриншот c названием фильма

[
[Profile]  [PM] 
Display posts:    
Reply to topic

Current time is: 21-Apr 10:41

All times are UTC + 2



You cannot post new topics in this forum
You cannot reply to topics in this forum
You cannot edit your posts in this forum
You cannot delete your posts in this forum
You cannot vote in polls in this forum
You cannot attach files in this forum
You cannot download files in this forum