Заклятие 2 / The Conjuring 2 (Джеймс Ван / James Wan) [2016, США, Ужасы, мистика, драма, BDRip] Dub (iTunes)

Reply to topic
 
Author
Message

Satyr ®

Gender: Unknown

Longevity: 10 years

Posts: 12852

Reputation: 54 [+] [-]

Satyr · Post 11-Sep-2016 01:20

[Quote] 

Заклятие 2 / The Conjuring 2
Страна: США
Жанр: Ужасы, мистика, драма
Год выпуска: 2016
Продолжительность: 02:13:52
Перевод: Профессиональный (дублированный)
Cубтитры: нет
Оригинальная аудиодорожка: нет
Режиссер: Джеймс Ван / James Wan
В ролях: Патрик Уилсон, Вера Фармига, Мэдисон Вульф, Фрэнсис О’Коннор, Лорен Эспозито, Саймон МакБерни, Мария Дойл Кеннеди, Саймон Делани
Описание: Супружеская чета учёных Лоррейн и Эд Уоррен, изучающих паранормальные явления, борется с тёмными силами, изгоняет демонов уже давно. К ним за помощью обращается одинокая многодетная мать Пегги Ходжсон, в доме которой часто возникают странные, непонятные события, возможно связанные с деятельностью потусторонних сил. Лоррен и Эд направляются в её городок, чтобы помочь бедной женщине и остальным жителям обрести спокойную жизнь в своих домах. Оказавшись на месте, они наблюдают такую картину: жители городка Энфильд постоянно находятся в ощущении ужаса, враждебно настроены друг к другу и подозревают каждого в причастности к колдовству. Ещё и друг за другом стали исчезать и гибнуть люди при очень загадочных обстоятельствах. Супруги начинают выяснять, откуда возникли наводящие страх сверхъестественные силы. Оказалось, что причиной всему происходящему стала колдунья, жившая в этих краях, после смерти которой в городке поселился могущественный демон. Лоррейн и Эду необходимо вступить с ним в серьёзную схватку....
Сэмпл: http://multi-up.com/1115876
Качество видео: ВDRip
Исходник: [THE_CONJURING_2_REMUX_HDCLUB]
Формат видео: AVI
Видео: 720x304 (2.37:1), 23.976 fps, XviD build 65 ~1360 kbps avg, 0.26 bit/pixel
Аудио RUS: 48 kHz, AC3 Dolby Digital, 2/0 (L,R) ch, ~192 kbps
Rip by Ториял для

MediaInfo

Format : AVI
Format/Info : Audio Video Interleave
File size : 1.46 GiB
Duration : 2h 13mn
Overall bit rate : 1 562 Kbps
Writing application : VirtualDubMod 1.5.10.3 | www.virtualdub-fr.org || (build 2550/release)
Writing library : VirtualDubMod build 2550/release
Video
ID : 0
Format : MPEG-4 Visual
Format profile : Advanced Simple@L5
Format settings, BVOP : 1
Format settings, QPel : No
Format settings, GMC : No warppoints
Format settings, Matrix : Custom
Codec ID : XVID
Codec ID/Hint : XviD
Duration : 2h 13mn
Bit rate : 1 361 Kbps
Width : 720 pixels
Height : 304 pixels
Display aspect ratio : 2.35:1
Frame rate : 23.976 (23976/1000) fps
Color space : YUV
Chroma subsampling : 4:2:0
Bit depth : 8 bits
Scan type : Progressive
Compression mode : Lossy
Bits/(Pixel*Frame) : 0.259
Stream size : 1.27 GiB (87%)
Writing library : XviD 65
Audio
ID : 1
Format : AC-3
Format/Info : Audio Coding 3
Mode extension : CM (complete main)
Format settings, Endianness : Big
Codec ID : 2000
Duration : 2h 13mn
Bit rate mode : Constant
Bit rate : 192 Kbps
Channel(s) : 2 channels
Channel positions : Front: L R
Sampling rate : 48.0 KHz
Frame rate : 31.250 fps (1536 spf)
Compression mode : Lossy
Stream size : 184 MiB (12%)
Alignment : Split accross interleaves
Interleave, duration : 42 ms (1.00 video frame)
Interleave, preload duratio : 500 ms

Скриншоты

[Profile]  [PM] 
Display posts:    
Reply to topic

Current time is: 21-Apr 10:58

All times are UTC + 2



You cannot post new topics in this forum
You cannot reply to topics in this forum
You cannot edit your posts in this forum
You cannot delete your posts in this forum
You cannot vote in polls in this forum
You cannot attach files in this forum
You cannot download files in this forum