Заклятие 2 / The Conjuring 2 (Джеймс Ван / James Wan) [2016, США, Канада, Ужасы, триллер, детектив, HDRip] Dub (iTunes)

Reply to topic
 
Author
Message

Satyr ®

Gender: Unknown

Longevity: 10 years

Posts: 13513

Reputation: 54 [+] [-]

Satyr · Post 11-Sep-2016 01:20

[Quote] 

Заклятие 2 / The Conjuring 2

«The next true story from the case files of Ed and Lorraine Warren»
Страна: США, Канада
Жанр: Ужасы, триллер, детектив
Год выпуска: 2016
Продолжительность: 02:013:24-Перевод: Профессиональный (дублированный) - iTunes
Cубтитры: нет-Режиссер: Джеймс Ван / James Wan-В ролях: Патрик Уилсон, Вера Фармига, Мэдисон Вульф, Фрэнсис О Коннор, Лорен Эспозито, Саймон МакБерни, Мария Дойл Кеннеди, Саймон Делани-Описание: Фильм основан на случае, с которым столкнулись практикующие исследователи паранормальных явлений Эд и Лоррэйн Уоррены. На этот раз вызов будет из северного пригорода Лондона, где семья, состоящая из четырех детей и матери-одиночки, подвергается нападениям потусторонних сил. Супругам предстоит выяснить, какова природа этих явлений, полтергейст ли это, или что-то другое, и главное — почему именно этот дом и именно эта семья.- -Качество видео: HDRip
Формат видео: AVI-Видео: 720x304 (2.35:1), 23.976 fps, XviD build 50, 1799 Kbps, 0.34 bit/pixel
Аудио: 48.0 kHz, AC3 Dolby Digital, 3/2 (L,C,R,l,r) + LFE ch, 384 Kbps-

MediaInfo

General
Complete name : Downloads\The.Conjuring.2.2016.D.HDRip.21OOMB.avi
Format : AVI
Format/Info : Audio Video Interleave
Format profile : OpenDML
File size : 2.05 GiB
Duration : 2h 13mn
Overall bit rate : 2 195 Kbps
Writing application : VirtualDubMod 1.5.10.2 (build 2540/release)
Writing library : VirtualDubMod build 2540/release
Video #0
ID : 0
Format : MPEG-4 Visual
Format profile : Advanced Simple@L5
Format settings, BVOP : 2
Format settings, QPel : No
Format settings, GMC : No warppoints
Format settings, Matrix : Custom
Codec ID : XVID
Codec ID/Hint : XviD
Duration : 2h 13mn
Bit rate : 1 799 Kbps
Width : 720 pixels
Height : 304 pixels
Display aspect ratio : 2.35:1
Frame rate : 23.976 fps
Color space : YUV
Chroma subsampling : 4:2:0
Bit depth : 8 bits
Scan type : Progressive
Compression mode : Lossy
Bits/(Pixel*Frame) : 0.343
Stream size : 1.68 GiB (82%)
Writing library : XviD 1.2.1 (UTC 2008-12-04)
Audio #1
ID : 1
Format : AC-3
Format/Info : Audio Coding 3
Mode extension : CM (complete main)
Format settings, Endianness : Big
Codec ID : 2000
Duration : 2h 13mn
Bit rate mode : Constant
Bit rate : 384 Kbps
Channel(s) : 6 channels
Channel positions : Front: L C R, Side: L R, LFE
Sampling rate : 48.0 KHz
Bit depth : 16 bits
Compression mode : Lossy
Delay relative to video : 900ms
Stream size : 368 MiB (17%)
Alignment : Split accross interleaves
Interleave, duration : 42 ms (1.00 video frame)
Interleave, preload duration : 500 ms

Скриншот c названием фильма

Скриншоты

[Profile]  [PM] 
Display posts:    
Reply to topic

Current time is: 17-Jul 13:24

All times are UTC + 2



You cannot post new topics in this forum
You cannot reply to topics in this forum
You cannot edit your posts in this forum
You cannot delete your posts in this forum
You cannot vote in polls in this forum
You cannot attach files in this forum
You cannot download files in this forum