Иллюзия обмана 2 / Now You See Me 2 (Джон М. Чу / Jon Chu) [2016, США, боевик, триллер, комедия, криминал, BDRip-AVC] Dub

Reply to topic
 
Author
Message

Satyr ®

Gender: Unknown

Longevity: 10 years

Posts: 12852

Reputation: 54 [+] [-]

Satyr · Post 11-Sep-2016 01:21

[Quote] 

Иллюзия обмана 2 / Now You See Me 2«Вы еще ничего не видели»- Страна: США
Жанр: боевик, триллер, комедия, криминал
Год выпуска: 2016
Продолжительность: 02:09:39
Перевод: Профессиональный (дублированный)
Оригинальная аудиодорожка: нет
Cубтитры: нет
Навигация по главам: есть
Режиссер: Джон М. Чу / Jon Chu
В ролях: Лиззи Каплан, Дэниэл Рэдклифф, Дэйв Франко, Марк Руффало, Джесси Айзенберг, Морган Фриман, Вуди Харрельсон, Майкл Кейн
Описание: «Четыре всадника», команда лучших иллюзионистов мира, снова в сборе! Их «магия» стала еще совершеннее, а враги — опаснее. На сей раз им предстоит спасти свою репутацию и вывести на чистую воду жестокого техномагната…- -Качество видео: BDRip-AVC (исходник - BDRemux|US Transfer|NOW_YOU_SEE_ME_2_PROPER_REMUX_HDCLUB)
Формат видео: MKV
Видео: x264, 1032х430 (2.40:1), 23.976 fps, ~1950 kbps, 0.183 bit/pixel
Аудио: 48 kHz, AC3 Dolby Digital, 3/2 (L,C,R,l,r) + LFE ch, ~448 kbps
Формат субтитров: softsub (SRT)

MediaInfo | x264 log

Format : Matroska
Format version : Version 4 / Version 2
File size : 2.17 GiB
Duration : 2h 9mn
Overall bit rate : 2 399 Kbps
Movie name : Иллюзия обмана 2 / Now You See Me 2 (2016) :: AFM ::
Encoded date : UTC 2016-08-29 06:42:52
Writing application : mkvmerge v8.3.0 ('Over the Horizon') 32bit
Writing library : libebml v1.3.1 + libmatroska v1.4.2
Video
ID : 1
Format : AVC
Format/Info : Advanced Video Codec
Format profile : High@L4.1
Format settings, CABAC : Yes
Format settings, ReFrames : 11 frames
Codec ID : V_MPEG4/ISO/AVC
Duration : 2h 9mn
Bit rate : 1 950 Kbps
Width : 1 032 pixels
Height : 430 pixels
Display aspect ratio : 2.40:1
Frame rate mode : Constant
Frame rate : 23.976 fps
Color space : YUV
Chroma subsampling : 4:2:0
Bit depth : 8 bits
Scan type : Progressive
Bits/(Pixel*Frame) : 0.183
Stream size : 1.72 GiB (79%)
Title : BDRip by AFM [torrentsland.com.ua]
Writing library : x264 core 148 r2705+54 9f484c1 t_mod_Custom [8-bit@all X86_64]
Encoding settings : cabac=1 / ref=11 / deblock=1:-3:-2 / analyse=0x3:0x113 / me=umh / subme=10 / psy=1 / fade_compensate=0.00 / psy_rd=1.00:0.00 / mixed_ref=1 / me_range=32 / chroma_me=1 / trellis=2 / 8x8dct=1 / cqm=0 / deadzone=21,11 / fast_pskip=0 / chroma_qp_offset=-2 / threads=6 / lookahead_threads=1 / sliced_threads=0 / nr=0 / decimate=0 / interlaced=0 / bluray_compat=0 / constrained_intra=0 / fgo=0 / bframes=13 / b_pyramid=2 / b_adapt=2 / b_bias=0 / direct=3 / weightb=1 / open_gop=0 / weightp=2 / keyint=250 / keyint_min=23 / scenecut=40 / intra_refresh=0 / rc_lookahead=40 / rc=2pass / mbtree=0 / bitrate=1950 / ratetol=1.0 / qcomp=0.65 / qpmin=0:0:0 / qpmax=69:69:69 / qpstep=4 / cplxblur=20.0 / qblur=0.5 / vbv_maxrate=50000 / vbv_bufsize=62500 / nal_hrd=none / filler=0 / ip_ratio=1.33 / pb_ratio=1.27 / aq=3:0.85 / aq-sensitivity=10.00 / aq-factor=1.00:1.00:1.00 / aq2=0 / aq3=0
Language : English
Default : Yes
Forced : No
Audio
ID : 2
Format : AC-3
Format/Info : Audio Coding 3
Mode extension : CM (complete main)
Format settings, Endianness : Big
Codec ID : A_AC3
Duration : 2h 9mn
Bit rate mode : Constant
Bit rate : 448 Kbps
Channel(s) : 6 channels
Channel positions : Front: L C R, Side: L R, LFE
Sampling rate : 48.0 KHz
Compression mode : Lossy
Stream size : 415 MiB (19%)
Title : Dub, AC3 5.1 ~448 kbps
Language : Russian
Default : Yes
Forced : No
Menu
00:00:00.000 : en:Chapter 1
00:07:05.132 : en:Chapter 2
00:16:03.836 : en:Chapter 3
00:25:29.568 : en:Chapter 4
00:33:16.827 : en:Chapter 5
00:39:57.643 : en:Chapter 6
00:48:07.716 : en:Chapter 7
00:53:34.710 : en:Chapter 8
01:03:53.246 : en:Chapter 9
01:14:00.560 : en:Chapter 10
01:20:23.568 : en:Chapter 11
01:26:37.399 : en:Chapter 12
01:32:37.051 : en:Chapter 13
01:38:46.837 : en:Chapter 14
01:48:13.528 : en:Chapter 15
01:54:04.921 : en:Chapter 16

x264

x264 [info]: frame I:1772 Avg QP:16.51 size: 69007
x264 [info]: frame P:47239 Avg QP:20.09 size: 19445
x264 [info]: frame B:137504 Avg QP:21.52 size: 6217
x264 [info]: consecutive B-frames: 4.3% 6.8% 11.0% 20.7% 18.7% 29.7% 4.7% 0.9% 1.0% 0.5% 0.4% 0.2% 0.3% 0.8%
x264 [info]: mb I I16..4: 5.0% 75.9% 19.1%
x264 [info]: mb P I16..4: 1.4% 8.1% 1.6% P16..4: 38.3% 25.8% 14.6% 0.0% 0.0% skip:10.1%
x264 [info]: mb B I16..4: 0.1% 0.5% 0.1% B16..8: 41.6% 11.5% 3.4% direct: 4.6% skip:38.1% L0:43.7% L1:45.1% BI:11.2%
x264 [info]: 8x8 transform intra:72.7% inter:59.1%
x264 [info]: direct mvs spatial:95.0% temporal:5.0%
x264 [info]: coded y,uvDC,uvAC intra: 80.3% 80.3% 62.3% inter: 23.2% 19.7% 9.3%
x264 [info]: i16 v,h,dc,p: 49% 17% 10% 24%
x264 [info]: i8 v,h,dc,ddl,ddr,vr,hd,vl,hu: 10% 10% 10% 9% 13% 13% 13% 11% 12%
x264 [info]: i4 v,h,dc,ddl,ddr,vr,hd,vl,hu: 10% 9% 4% 10% 15% 14% 13% 11% 13%
x264 [info]: i8c dc,h,v,p: 45% 22% 18% 15%
x264 [info]: Weighted P-Frames: Y:3.8% UV:2.1%
x264 [info]: ref P L0: 51.3% 10.4% 15.5% 5.7% 4.8% 3.2% 3.0% 1.7% 1.7% 1.3% 1.3% 0.1% 0.0%
x264 [info]: ref B L0: 73.5% 11.7% 5.7% 2.9% 2.0% 1.6% 1.2% 0.8% 0.5% 0.2%
x264 [info]: ref B L1: 94.5% 5.5%
x264 [info]: kb/s:1949.46

Скриншоты

с названием

[Profile]  [PM] 
Display posts:    
Reply to topic

Current time is: 21-Apr 10:05

All times are UTC + 2



You cannot post new topics in this forum
You cannot reply to topics in this forum
You cannot edit your posts in this forum
You cannot delete your posts in this forum
You cannot vote in polls in this forum
You cannot attach files in this forum
You cannot download files in this forum