Трудная мишень 2 / Hard Target 2 (Роэль Рейн / Roel Reine) [2016, США, боевик, триллер, криминал, BDRip-AVC] Dub + Original + Sub (rus, eng)

Reply to topic
 
Author
Message

Satyr ®

Gender: Unknown

Longevity: 10 years

Posts: 12852

Reputation: 54 [+] [-]

Satyr · Post 11-Sep-2016 01:21

[Quote] 

Трудная мишень 2 / Hard Target 2- Страна: США
Жанр: боевик, триллер, криминал
Год выпуска: 2016
Продолжительность: 01:43:33
Перевод: Профессиональный (дублированный) (BD EUR)
Оригинальная аудиодорожка: английский
Cубтитры: русские (форс., полные) английские (полные, SDH)
Навигация по главам: есть
Режиссеры: Роэль Рейн / Roel Reine
В ролях: Скотт Эдкинс, Роберт Неппер, Рона Митра, Темуэра Моррисон, Адам Саундерс, Джэйми Тимони, Питер Харди, Шон Кинэн , Йанин Висмитананда, Дамиан Мевис, Байрон Гибсон, Сахайак Бунсанакит, Антео Квинтавалле, Эйн О’Брайэн, Джеффри Джулиано, Дэвид Асаванонд, Куллет Эрик, Гиги Велиситат, Амарин Чолвибул, Крис Ловенштейн
Описание: Продолжение культового экшн-триллера 1993 года о подпольных игрищах, где проплаченные «охотники» травят, как дичь, похищенных людей. Новой мишенью становится опальный мастер боевых искусств, который соблазнился деньгами, даже не подозревая, на что подписывается. Но и его преследователи еще не знают, с кем связались

Качество видео: BDRip-AVC (исходник - Blu-ray|HARD_TARGET_BD_EUR)
Формат видео: MKV
Видео: x264, 1024x576 (16:9), 23,976 fps, ~3828 kbps, 0.271 bit/pixel
Аудио 1: 48 kHz, AC3 Dolby Digital, 3/2 (L,C,R,l,r) + LFE ch, ~448 kbps [русский]
Аудио 2: 48 kHz, AC3 Dolby Digital, 3/2 (L,C,R,l,r) + LFE ch, ~448 kbps [английский]
Формат субтитров: softsub (SRT)

MediaInfo | x264 log

Format : Matroska
Format version : Version 4 / Version 2
File size : 3.49 GiB
Duration : 1h 43mn
Overall bit rate : 4 820 Kbps
Movie name : Трудная мишень 2 / Hard Target 2 (2016) :: AFM ::
Encoded date : UTC 2016-08-28 20:00:20
Writing application : mkvmerge v8.3.0 ('Over the Horizon') 32bit
Writing library : libebml v1.3.1 + libmatroska v1.4.2
Video
ID : 1
Format : AVC
Format/Info : Advanced Video Codec
Format profile : High@L4.1
Format settings, CABAC : Yes
Format settings, ReFrames : 11 frames
Codec ID : V_MPEG4/ISO/AVC
Duration : 1h 43mn
Bit rate : 3 828 Kbps
Width : 1 024 pixels
Height : 576 pixels
Display aspect ratio : 16:9
Frame rate mode : Constant
Frame rate : 23.976 fps
Color space : YUV
Chroma subsampling : 4:2:0
Bit depth : 8 bits
Scan type : Progressive
Bits/(Pixel*Frame) : 0.271
Stream size : 2.77 GiB (79%)
Title : BDRip by AFM [torrentsland.com.ua]
Writing library : x264 core 148 r2705+54 9f484c1 t_mod_Custom [8-bit@all X86_64]
Encoding settings : cabac=1 / ref=11 / deblock=1:-2:-2 / analyse=0x3:0x113 / me=umh / subme=10 / psy=1 / fade_compensate=0.00 / psy_rd=1.00:0.00 / mixed_ref=1 / me_range=32 / chroma_me=1 / trellis=2 / 8x8dct=1 / cqm=0 / deadzone=21,11 / fast_pskip=0 / chroma_qp_offset=-2 / threads=6 / lookahead_threads=1 / sliced_threads=0 / nr=0 / decimate=1 / interlaced=0 / bluray_compat=0 / constrained_intra=0 / fgo=0 / bframes=12 / b_pyramid=2 / b_adapt=2 / b_bias=0 / direct=1 / weightb=1 / open_gop=0 / weightp=2 / keyint=250 / keyint_min=23 / scenecut=40 / intra_refresh=0 / rc_lookahead=40 / rc=crf / mbtree=0 / crf=17.5000 / qcomp=0.65 / qpmin=0:0:0 / qpmax=69:69:69 / qpstep=4 / vbv_maxrate=50000 / vbv_bufsize=62500 / crf_max=0.0 / nal_hrd=none / filler=0 / ip_ratio=1.35 / pb_ratio=1.30 / aq=3:0.90 / aq-sensitivity=10.00 / aq-factor=1.00:1.00:1.00 / aq2=0 / aq3=0
Language : English
Default : Yes
Forced : No
Audio #1
ID : 2
Format : AC-3
Format/Info : Audio Coding 3
Mode extension : CM (complete main)
Format settings, Endianness : Big
Codec ID : A_AC3
Duration : 1h 43mn
Bit rate mode : Constant
Bit rate : 448 Kbps
Channel(s) : 6 channels
Channel positions : Front: L C R, Side: L R, LFE
Sampling rate : 48.0 KHz
Compression mode : Lossy
Stream size : 332 MiB (9%)
Title : Dub, AC3 5.1 ~448 kbps
Language : Russian
Default : Yes
Forced : No
Audio #2
ID : 3
Format : AC-3
Format/Info : Audio Coding 3
Mode extension : CM (complete main)
Format settings, Endianness : Big
Codec ID : A_AC3
Duration : 1h 43mn
Bit rate mode : Constant
Bit rate : 448 Kbps
Channel(s) : 6 channels
Channel positions : Front: L C R, Side: L R, LFE
Sampling rate : 48.0 KHz
Compression mode : Lossy
Stream size : 332 MiB (9%)
Title : Original, AC3 5.1 ~448 kbps
Language : English
Default : No
Forced : No
Text #1
ID : 4
Format : UTF-8
Codec ID : S_TEXT/UTF8
Codec ID/Info : UTF-8 Plain Text
Title : forced
Language : Russian
Default : Yes
Forced : No
Text #2
ID : 5
Format : UTF-8
Codec ID : S_TEXT/UTF8
Codec ID/Info : UTF-8 Plain Text
Language : Russian
Default : No
Forced : No
Text #3
ID : 6
Format : UTF-8
Codec ID : S_TEXT/UTF8
Codec ID/Info : UTF-8 Plain Text
Language : English
Default : No
Forced : No
Text #4
ID : 7
Format : UTF-8
Codec ID : S_TEXT/UTF8
Codec ID/Info : UTF-8 Plain Text
Title : SDH
Language : English
Default : No
Forced : No
Menu
00:00:00.000 : en:Chapter 1
00:04:20.260 : en:Chapter 2
00:11:08.042 : en:Chapter 3
00:14:49.889 : en:Chapter 4
00:19:39.344 : en:Chapter 5
00:22:42.778 : en:Chapter 6
00:29:22.135 : en:Chapter 7
00:34:33.780 : en:Chapter 8
00:39:10.264 : en:Chapter 9
00:44:59.113 : en:Chapter 10
00:49:06.318 : en:Chapter 11
00:54:23.260 : en:Chapter 12
00:58:45.980 : en:Chapter 13
01:04:09.053 : en:Chapter 14
01:09:10.396 : en:Chapter 15
01:17:46.203 : en:Chapter 16
01:22:19.935 : en:Chapter 17
01:27:10.433 : en:Chapter 18
01:31:24.395 : en:Chapter 19
01:40:24.018 : en:Chapter 20

x264

x264 [info]: frame I:1157 Avg QP:17.62 size: 97730
x264 [info]: frame P:38101 Avg QP:18.56 size: 37698
x264 [info]: frame B:109711 Avg QP:21.27 size: 13637
x264 [info]: consecutive B-frames: 3.5% 4.6% 12.4% 33.5% 18.9% 21.2% 3.2% 0.9% 0.6% 0.5% 0.2% 0.2% 0.4%
x264 [info]: mb I I16..4: 3.6% 77.1% 19.3%
x264 [info]: mb P I16..4: 1.3% 17.4% 2.7% P16..4: 32.3% 27.7% 15.3% 0.0% 0.0% skip: 3.4%
x264 [info]: mb B I16..4: 0.2% 1.8% 0.5% B16..8: 38.0% 15.2% 4.9% direct: 8.2% skip:31.3% L0:41.1% L1:39.8% BI:19.1%
x264 [info]: 8x8 transform intra:79.2% inter:63.7%
x264 [info]: coded y,uvDC,uvAC intra: 90.1% 86.5% 64.9% inter: 33.5% 26.0% 10.1%
x264 [info]: i16 v,h,dc,p: 42% 11% 6% 41%
x264 [info]: i8 v,h,dc,ddl,ddr,vr,hd,vl,hu: 9% 12% 6% 9% 13% 12% 14% 11% 14%
x264 [info]: i4 v,h,dc,ddl,ddr,vr,hd,vl,hu: 7% 11% 3% 8% 16% 14% 16% 11% 14%
x264 [info]: i8c dc,h,v,p: 43% 23% 15% 18%
x264 [info]: Weighted P-Frames: Y:4.3% UV:2.6%
x264 [info]: ref P L0: 53.0% 15.2% 12.4% 5.0% 4.2% 2.7% 2.4% 1.4% 1.3% 1.1% 1.1% 0.1% 0.0%
x264 [info]: ref B L0: 79.2% 8.9% 4.4% 2.3% 1.7% 1.3% 1.0% 0.7% 0.5% 0.2%
x264 [info]: ref B L1: 96.1% 3.9%
x264 [info]: kb/s:3921.32

Скриншоты

с названием

[Profile]  [PM] 
Display posts:    
Reply to topic

Current time is: 21-Apr 10:31

All times are UTC + 2



You cannot post new topics in this forum
You cannot reply to topics in this forum
You cannot edit your posts in this forum
You cannot delete your posts in this forum
You cannot vote in polls in this forum
You cannot attach files in this forum
You cannot download files in this forum