Несносные леди / Mother\'s Day (Гэрри Маршалл / Garry Marshall) [2016, США, драма, комедия, BDRip] Dub

Reply to topic
 
Author
Message

Satyr ®

Gender: Unknown

Longevity: 10 years

Posts: 13513

Reputation: 54 [+] [-]

Satyr · Post 11-Sep-2016 01:21

[Quote] 

Несносные леди / Mother's Day

« Не угадаешь, что они выкинут завтра»
-Страна: США
Жанр: драма, комедия
Год выпуска: 2016
Продолжительность: 01:57:51
Перевод: Профессиональный (дублированный) - | Лицензия - BD RUS |
Cубтитры: нет
Оригинальная аудиодорожка: нет-Режиссер: Гэрри Маршалл / Garry Marshall-В ролях: Дженнифер Энистон, Джулия Робертс, Кейт Хадсон, Джейсон Судейкис, Тимоти Олифант, Шэй Митчелл, Калеб Браун, Брэндон Спинк, Сэм Маршалл, Сиена ЛаГамбина...-Описание: Фитнес и шопинг, капризные предки и непослушные дети, завистливые подружки и надоевшие бывшие - милые составляющие настоящего женского счастья. А также мужского, если ты - отец-одиночка. И неважно, где и как сведет вас жизнь, если ты встретишь настоящую любовь. Главное - не сдаваться! Ведь судьба - это большой супермаркет, а не магазин на диване.- -Качество видео: BDRip | Mother's Day (2016) Blu-ray RUS 1080p AVC DTS-HD 5.1 - HDClub |
Формат видео: AVI
Видео: 704x384, 23.976 fps, XviD build 73 ~1318 kbps avg, 0.210 bit/pixel
Аудио: 48 kHz, AC3 Dolby Digital, 3/2 (L,C,R,l,r) + LFE ch, ~448 kbps-

Дополнительно о фильме:

Производство, студия дубляжа, прокат:

Знаете ли вы, что...

MediaInfo

General
Complete name : Mothers.Day.2016.BDRip_by_Flash.avi
Format : AVI
Format/Info : Audio Video Interleave
File size : 1.46 GiB
Duration : 1h 57mn
Overall bit rate : 1 776 Kbps
Writing application : VirtualDubMod 1.5.10.3 | www.virtualdub-fr.org || (build 2550/release)
Writing library : VirtualDubMod build 2550/release
Video
ID : 0
Format : MPEG-4 Visual
Format profile : Advanced Simple@L5
Format settings, BVOP : 1
Format settings, QPel : No
Format settings, GMC : No warppoints
Format settings, Matrix : Custom
Codec ID : XVID
Codec ID/Hint : XviD
Duration : 1h 57mn
Bit rate : 1 318 Kbps
Width : 704 pixels
Height : 384 pixels
Display aspect ratio : 1.85:1
Frame rate : 23.976 fps
Color space : YUV
Chroma subsampling : 4:2:0
Bit depth : 8 bits
Scan type : Progressive
Compression mode : Lossy
Bits/(Pixel*Frame) : 0.203
Stream size : 1.09 GiB (74%)
Writing library : XviD 73
Audio
ID : 1
Format : AC-3
Format/Info : Audio Coding 3
Mode extension : CM (complete main)
Format settings, Endianness : Big
Codec ID : 2000
Duration : 1h 57mn
Bit rate mode : Constant
Bit rate : 448 Kbps
Channel(s) : 6 channels
Channel positions : Front: L C R, Side: L R, LFE
Sampling rate : 48.0 KHz
Bit depth : 16 bits
Compression mode : Lossy
Stream size : 378 MiB (25%)
Alignment : Split accross interleaves
Interleave, duration : 42 ms (1.00 video frame)
Interleave, preload duratio : 500 ms

Скриншот c названием фильма

Скриншоты

[Profile]  [PM] 
Display posts:    
Reply to topic

Current time is: 17-Jul 13:01

All times are UTC + 2



You cannot post new topics in this forum
You cannot reply to topics in this forum
You cannot edit your posts in this forum
You cannot delete your posts in this forum
You cannot vote in polls in this forum
You cannot attach files in this forum
You cannot download files in this forum