Мистериум. Тьма в бутылке / Flaskepost fra P (Ганс Петтер Моланд / Hans Petter Moland) [2016, Дания, Германия, Швеция, Норвегия, триллер, детектив, драма, экранизация, BDRip-AVC] MVO (GreenРай Studio)

Reply to topic
 
Author
Message

Satyr ®

Gender: Unknown

Longevity: 10 years

Posts: 12858

Reputation: 54 [+] [-]

Satyr · Post 11-Sep-2016 01:21

[Quote] 

Мистериум. Тьма в бутылке / Flaskepost fra P- Страна: Дания, Германия, Швеция, Норвегия
Жанр: триллер, детектив, драма, экранизация
Год выпуска: 2016
Продолжительность: 01:51:29
Перевод: Любительский (многоголосый закадровый) (GreenРай Studio)
Оригинальная аудиодорожка: нет
Cубтитры: нет
Навигация по главам: есть
Режиссер: Ганс Петтер Моланд / Hans Petter Moland
В ролях: Николай Ли Каас, Фарес Фарес, Пол Сверре Валхейм Хаген, Якоб Ульрик Ломанн, Amanda Collin, Джохэнн Луиз Шмидт, Якоб Офтебро, Сигне Анастассиа Маннов, Сёрен Пильмарк, Михаэль Броструп
Описание: В департаменте полиции Копенгагена существует особый отдел Q, который создали для раскрытия самых необычных и запутанных дел. В отделе работают детективы Карл Мёрке и Асад. В этот раз в отдел обращаются со странной находкой – в Шотландии случайно выловили запечатанную бутылку с призывом о помощи, написанную на датском языке, да ещё и кровью. К сожалению, время и соленая вода не пощадили текст, но сыщики берутся за расшифровку, надеясь пролить свет на тайну этого послания. Постепенно перед ними начинает открываться жуткая история, которая, судя по всему, ещё не завершилась. В результате детективы выходят на след убийцы-психопата и раскрывают жуткую историю похищенных детей, об исчезновении которых никто не заявлял.- -Качество: BDRip-AVC (исходник - BDRemux)
Формат видео: MKV
Видео: x264, 1032x440 (2.35:1), 24,000 fps, ~1495 kbps, 0.137 bit/pixel
Аудио: 48 kHz, AC3 Dolby Digital, 3/2 (L,C,R,l,r) + LFE ch, ~384 kbps
Формат субтитров: softsub (SRT)-

MediaInfo | x264 log

Format : Matroska
Format version : Version 4 / Version 2
File size : 1.46 GiB
Duration : 1h 51mn
Overall bit rate : 1 877 Kbps
Movie name : Мистериум. Тьма в бутылке / Flaskepost fra P (2016) :: AFM ::
Encoded date : UTC 2016-08-27 09:52:19
Writing application : mkvmerge v8.3.0 ('Over the Horizon') 32bit
Writing library : libebml v1.3.1 + libmatroska v1.4.2
Video
ID : 1
Format : AVC
Format/Info : Advanced Video Codec
Format profile : High@L4.1
Format settings, CABAC : Yes
Format settings, ReFrames : 11 frames
Codec ID : V_MPEG4/ISO/AVC
Duration : 1h 51mn
Bit rate : 1 495 Kbps
Width : 1 032 pixels
Height : 440 pixels
Display aspect ratio : 2.35:1
Frame rate mode : Constant
Frame rate : 24.000 fps
Color space : YUV
Chroma subsampling : 4:2:0
Bit depth : 8 bits
Scan type : Progressive
Bits/(Pixel*Frame) : 0.137
Stream size : 1.13 GiB (78%)
Title : BDRip by AFM [torrentsland.com.ua]
Writing library : x264 core 148 r2705+54 9f484c1 t_mod_Custom [8-bit@all X86_64]
Encoding settings : cabac=1 / ref=11 / deblock=1:-2:-2 / analyse=0x3:0x113 / me=umh / subme=10 / psy=1 / fade_compensate=0.00 / psy_rd=1.00:0.00 / mixed_ref=1 / me_range=32 / chroma_me=1 / trellis=2 / 8x8dct=1 / cqm=0 / deadzone=21,11 / fast_pskip=0 / chroma_qp_offset=-2 / threads=6 / lookahead_threads=1 / sliced_threads=0 / nr=0 / decimate=0 / interlaced=0 / bluray_compat=0 / constrained_intra=0 / fgo=0 / bframes=12 / b_pyramid=2 / b_adapt=2 / b_bias=0 / direct=3 / weightb=1 / open_gop=0 / weightp=2 / keyint=250 / keyint_min=23 / scenecut=40 / intra_refresh=0 / rc_lookahead=40 / rc=2pass / mbtree=0 / bitrate=1495 / ratetol=1.0 / qcomp=0.65 / qpmin=0:0:0 / qpmax=69:69:69 / qpstep=4 / cplxblur=20.0 / qblur=0.5 / vbv_maxrate=50000 / vbv_bufsize=62500 / nal_hrd=none / filler=0 / ip_ratio=1.35 / pb_ratio=1.30 / aq=3:0.80 / aq-sensitivity=10.00 / aq-factor=1.00:1.00:1.00 / aq2=0 / aq3=0
Language : English
Default : Yes
Forced : No
Audio
ID : 2
Format : AC-3
Format/Info : Audio Coding 3
Mode extension : CM (complete main)
Format settings, Endianness : Big
Codec ID : A_AC3
Duration : 1h 51mn
Bit rate mode : Constant
Bit rate : 384 Kbps
Channel(s) : 6 channels
Channel positions : Front: L C R, Side: L R, LFE
Sampling rate : 48.0 KHz
Compression mode : Lossy
Stream size : 306 MiB (20%)
Title : MVO, AC3 5.1 ~384 kbps
Language : Russian
Default : Yes
Forced : No
Menu
00:00:00.000 : en:Chapter 01
00:09:48.542 : en:Chapter 02
00:20:55.792 : en:Chapter 03
00:30:47.167 : en:Chapter 04
00:41:20.542 : en:Chapter 05
00:53:17.625 : en:Chapter 06
01:02:45.750 : en:Chapter 07
01:12:56.875 : en:Chapter 08
01:23:17.458 : en:Chapter 09
01:33:34.167 : en:Chapter 10
01:42:35.917 : en:Chapter 11

x264

x264 [info]: frame I:1169 Avg QP:13.86 size: 50476
x264 [info]: frame P:34295 Avg QP:16.99 size: 16567
x264 [info]: frame B:125078 Avg QP:18.56 size: 4958
x264 [info]: consecutive B-frames: 2.3% 2.8% 7.4% 18.7% 15.8% 37.7% 6.1% 1.6% 3.0% 0.8% 1.3% 1.4% 1.1%
x264 [info]: mb I I16..4: 6.6% 77.0% 16.4%
x264 [info]: mb P I16..4: 2.4% 12.7% 1.8% P16..4: 40.3% 25.0% 11.5% 0.0% 0.0% skip: 6.2%
x264 [info]: mb B I16..4: 0.2% 1.0% 0.1% B16..8: 37.9% 11.3% 2.4% direct: 4.5% skip:42.5% L0:46.7% L1:43.2% BI:10.1%
x264 [info]: 8x8 transform intra:74.8% inter:63.9%
x264 [info]: direct mvs spatial:97.9% temporal:2.1%
x264 [info]: coded y,uvDC,uvAC intra: 72.2% 67.1% 43.8% inter: 16.8% 18.5% 6.4%
x264 [info]: i16 v,h,dc,p: 36% 18% 8% 38%
x264 [info]: i8 v,h,dc,ddl,ddr,vr,hd,vl,hu: 16% 12% 11% 7% 10% 11% 11% 10% 12%
x264 [info]: i4 v,h,dc,ddl,ddr,vr,hd,vl,hu: 16% 11% 7% 8% 13% 13% 12% 9% 11%
x264 [info]: i8c dc,h,v,p: 41% 28% 21% 10%
x264 [info]: Weighted P-Frames: Y:2.2% UV:0.9%
x264 [info]: ref P L0: 47.7% 8.3% 16.5% 6.6% 5.6% 4.0% 3.7% 2.1% 2.1% 1.7% 1.7% 0.1% 0.0%
x264 [info]: ref B L0: 67.1% 12.9% 7.0% 3.6% 2.7% 2.2% 2.0% 1.2% 1.0% 0.3%
x264 [info]: ref B L1: 92.9% 7.1%
x264 [info]: kb/s:1491.66

Скриншоты

с названием

[Profile]  [PM] 
Display posts:    
Reply to topic

Current time is: 22-Apr 18:09

All times are UTC + 2



You cannot post new topics in this forum
You cannot reply to topics in this forum
You cannot edit your posts in this forum
You cannot delete your posts in this forum
You cannot vote in polls in this forum
You cannot attach files in this forum
You cannot download files in this forum