Мистериум. Тьма в бутылке / Flaskepost fra P (Ганс Петтер Моланд / Hans Petter Moland) [2016, Дания, Германия, Швеция, Норвегия, Триллер, криминал, детектив, драма, экранизация, HDRip] MVO (GreenРай Studio)

Reply to topic
 
Author
Message

Satyr ®

Gender: Unknown

Longevity: 10 years

Posts: 12858

Reputation: 54 [+] [-]

Satyr · Post 11-Sep-2016 01:21

[Quote] 

Мистериум. Тьма в бутылке / Flaskepost fra P
Страна: Дания, Германия, Швеция, Норвегия
Жанр: Триллер, криминал, детектив, драма, экранизация
Год выпуска: 2016
Продолжительность: 01:51:28
Перевод: Любительский (многоголосый, закадровый) | GreenРай Studio
Cубтитры: нет
Режиссер: Ганс Петтер Моланд / Hans Petter Moland
В ролях: Николай Ли Каас, Фарес Фарес, Пол Сверре Валхейм Хаген, Якоб Ульрик Ломанн, Джохэнн Луиз Шмидт, Якоб Офтебро, Сигне Анастассиа Маннов, Сёрен Пильмарк, Михаэль Броструп
Описание: В департаменте полиции Копенгагена существует особый отдел Q, который создали для раскрытия самых необычных и запутанных дел. В отделе работают детективы Карл Мёрке и Асад. В этот раз в отдел обращаются со странной находкой – в Шотландии случайно выловили запечатанную бутылку с призывом о помощи, написанную на датском языке, да ещё и кровью. К сожалению, время и соленая вода не пощадили текст, но сыщики берутся за расшифровку, надеясь пролить свет на тайну этого послания. Постепенно перед ними начинает открываться жуткая история, которая, судя по всему, ещё не завершилась. В результате детективы выходят на след убийцы-психопата и раскрывают жуткую историю похищенных детей, об исчезновении которых никто не заявлял.

Сэмпл
Релиз от Megapeer
Качество видео: HDRip
Формат видео: AVI
Видео: 688x288 (2.39:1), 24 fps, XviD build 73 ~801 kbps avg, 0.20 bit/pixel
Аудио: MP3, 128 Кбит/сек, 2 канала, 48,0 КГц

MediaInfo

ОбщееПолное имя                               : D:\A.Conspiracy.of.Faith.2016.HDRip.745MB.L.MegaPeer.aviФормат                                   : AVIФормат/Информация                        : Audio Video InterleaveРазмер файла                             : 745 МбайтПродолжительность                        : 1 ч. 51 м.Общий поток                              : 935 Кбит/сек
ВидеоИдентификатор : 0Формат : MPEG-4 VisualПрофиль формата : Advanced Simple@L5Параметр BVOP формата : 1Параметр QPel формата : НетПараметр GMC формата : Без точки переходаПараметр матрицы формата : ВыборочнаяИдентификатор кодека : XVIDИдентификатор кодека/Подсказка : XviDПродолжительность : 1 ч. 51 м.Битрейт : 801 Кбит/секШирина : 688 пикселейВысота : 288 пикселейСоотношение сторон : 2,40:1Частота кадров : 24,000 кадра/секЦветовое пространство : YUVСубдискретизация насыщенности : 4:2:0Битовая глубина : 8 битТип развёртки : ПрогрессивнаяМетод сжатия : С потерямиБит/(Пиксели*Кадры) : 0.168Размер потока : 639 Мбайт (86%)Библиотека кодирования : XviD 73
АудиоИдентификатор : 1Формат : MPEG AudioВерсия формата : Version 1Профиль формата : Layer 3Режим : Joint stereoРасширение режима : MS StereoИдентификатор кодека : 55Идентификатор кодека/Подсказка : MP3Продолжительность : 1 ч. 51 м.Вид битрейта : ПостоянныйБитрейт : 128 Кбит/секКаналы : 2 каналаЧастота : 48,0 КГцМетод сжатия : С потерямиРазмер потока : 102 Мбайт (14%)Выравнивание : Соединение по промежуткамПродолжительность промежутка : 167 мс. (4,00 видеокадра)Время предзагрузки промежутка : 216 мс.Заголовок : L | GreenРай Studio |Библиотека кодирования : LAME3.99rНастройки программы : -m j -V 4 -q 2 -lowpass 17 -b 128

Скриншоты

[Profile]  [PM] 
Display posts:    
Reply to topic

Current time is: 22-Apr 18:17

All times are UTC + 2



You cannot post new topics in this forum
You cannot reply to topics in this forum
You cannot edit your posts in this forum
You cannot delete your posts in this forum
You cannot vote in polls in this forum
You cannot attach files in this forum
You cannot download files in this forum