Мистериум. Тьма в бутылке / Flaskepost fra P (Ганс Петтер Моланд / Hans Petter Moland) [2016, Дания, Германия, Швеция, Норвегия, триллер, детектив, драма, экранизация, BDRip-AVC] MVO (GreenРай Studio) + Original + Sub (rus, eng, nor, swe, dan)

Reply to topic
 
Author
Message

Satyr ®

Gender: Unknown

Longevity: 10 years

Posts: 12852

Reputation: 54 [+] [-]

Satyr · Post 11-Sep-2016 01:21

[Quote] 

Мистериум. Тьма в бутылке / Flaskepost fra P- Страна: Дания, Германия, Швеция, Норвегия
Жанр: триллер, детектив, драма, экранизация
Год выпуска: 2016
Продолжительность: 01:51:29
Перевод: Любительский (многоголосый закадровый) (GreenРай Studio)
Оригинальная аудиодорожка: датский
Cубтитры: русские (полные), английские, норвежские, шведские (полные), датские (форс., SDH)
Навигация по главам: есть
Режиссер: Ганс Петтер Моланд / Hans Petter Moland
В ролях: Николай Ли Каас, Фарес Фарес, Пол Сверре Валхейм Хаген, Якоб Ульрик Ломанн, Amanda Collin, Джохэнн Луиз Шмидт, Якоб Офтебро, Сигне Анастассиа Маннов, Сёрен Пильмарк, Михаэль Броструп
Описание: В департаменте полиции Копенгагена существует особый отдел Q, который создали для раскрытия самых необычных и запутанных дел. В отделе работают детективы Карл Мёрке и Асад. В этот раз в отдел обращаются со странной находкой – в Шотландии случайно выловили запечатанную бутылку с призывом о помощи, написанную на датском языке, да ещё и кровью. К сожалению, время и соленая вода не пощадили текст, но сыщики берутся за расшифровку, надеясь пролить свет на тайну этого послания. Постепенно перед ними начинает открываться жуткая история, которая, судя по всему, ещё не завершилась. В результате детективы выходят на след убийцы-психопата и раскрывают жуткую историю похищенных детей, об исчезновении которых никто не заявлял.- -Качество: BDRip-AVC (исходник - BDRemux)
Формат видео: MKV
Видео: x264, 1152x490 (2.35:1), 24,000 fps, ~1909 kbps, 0.141 bit/pixel
Аудио 1: 48 kHz, AC3 Dolby Digital, 3/2 (L,C,R,l,r) + LFE ch, ~384 kbps [русский]
Аудио 2: 48 kHz, AC3 Dolby Digital, 3/2 (L,C,R,l,r) + LFE ch, ~448 kbps [датский]
Формат субтитров: softsub (SRT)-

MediaInfo | x264 log

Format : Matroska
Format version : Version 4 / Version 2
File size : 2.18 GiB
Duration : 1h 51mn
Overall bit rate : 2 797 Kbps
Movie name : Мистериум. Тьма в бутылке / Flaskepost fra P (2016) :: AFM ::
Encoded date : UTC 2016-08-27 05:56:52
Writing application : mkvmerge v8.3.0 ('Over the Horizon') 32bit
Writing library : libebml v1.3.1 + libmatroska v1.4.2
Video
ID : 1
Format : AVC
Format/Info : Advanced Video Codec
Format profile : High@L4.1
Format settings, CABAC : Yes
Format settings, ReFrames : 11 frames
Codec ID : V_MPEG4/ISO/AVC
Duration : 1h 51mn
Bit rate : 1 909 Kbps
Width : 1 152 pixels
Height : 490 pixels
Display aspect ratio : 2.35:1
Frame rate mode : Constant
Frame rate : 24.000 fps
Color space : YUV
Chroma subsampling : 4:2:0
Bit depth : 8 bits
Scan type : Progressive
Bits/(Pixel*Frame) : 0.141
Stream size : 1.49 GiB (68%)
Title : BDRip by AFM [torrentsland.com.ua]
Writing library : x264 core 148 r2705+54 9f484c1 t_mod_Custom [8-bit@all X86_64]
Encoding settings : cabac=1 / ref=11 / deblock=1:-2:-2 / analyse=0x3:0x113 / me=umh / subme=10 / psy=1 / fade_compensate=0.00 / psy_rd=1.00:0.00 / mixed_ref=1 / me_range=32 / chroma_me=1 / trellis=2 / 8x8dct=1 / cqm=0 / deadzone=21,11 / fast_pskip=0 / chroma_qp_offset=-2 / threads=6 / lookahead_threads=1 / sliced_threads=0 / nr=0 / decimate=1 / interlaced=0 / bluray_compat=0 / constrained_intra=0 / fgo=0 / bframes=12 / b_pyramid=2 / b_adapt=2 / b_bias=0 / direct=1 / weightb=1 / open_gop=0 / weightp=2 / keyint=250 / keyint_min=23 / scenecut=40 / intra_refresh=0 / rc_lookahead=40 / rc=crf / mbtree=0 / crf=18.0000 / qcomp=0.65 / qpmin=0:0:0 / qpmax=69:69:69 / qpstep=4 / vbv_maxrate=50000 / vbv_bufsize=62500 / crf_max=0.0 / nal_hrd=none / filler=0 / ip_ratio=1.33 / pb_ratio=1.28 / aq=3:0.80 / aq-sensitivity=10.00 / aq-factor=1.00:1.00:1.00 / aq2=0 / aq3=0
Language : English
Default : Yes
Forced : No
Audio #1
ID : 2
Format : AC-3
Format/Info : Audio Coding 3
Mode extension : CM (complete main)
Format settings, Endianness : Big
Codec ID : A_AC3
Duration : 1h 51mn
Bit rate mode : Constant
Bit rate : 384 Kbps
Channel(s) : 6 channels
Channel positions : Front: L C R, Side: L R, LFE
Sampling rate : 48.0 KHz
Compression mode : Lossy
Stream size : 306 MiB (14%)
Title : MVO, AC3 5.1 ~384 kbps
Language : Russian
Default : Yes
Forced : No
Audio #2
ID : 3
Format : AC-3
Format/Info : Audio Coding 3
Mode extension : CM (complete main)
Format settings, Endianness : Big
Codec ID : A_AC3
Duration : 1h 51mn
Bit rate mode : Constant
Bit rate : 448 Kbps
Channel(s) : 6 channels
Channel positions : Front: L C R, Side: L R, LFE
Sampling rate : 48.0 KHz
Compression mode : Lossy
Stream size : 357 MiB (16%)
Title : Original, AC3 5.1 ~448 kbps
Language : Danish
Default : No
Forced : No
Text #1
ID : 4
Format : UTF-8
Codec ID : S_TEXT/UTF8
Codec ID/Info : UTF-8 Plain Text
Language : Russian
Default : No
Forced : No
Text #2
ID : 5
Format : UTF-8
Codec ID : S_TEXT/UTF8
Codec ID/Info : UTF-8 Plain Text
Language : English
Default : No
Forced : No
Text #3
ID : 6
Format : UTF-8
Codec ID : S_TEXT/UTF8
Codec ID/Info : UTF-8 Plain Text
Language : Norwegian
Default : No
Forced : No
Text #4
ID : 7
Format : UTF-8
Codec ID : S_TEXT/UTF8
Codec ID/Info : UTF-8 Plain Text
Language : Swedish
Default : No
Forced : No
Text #5
ID : 8
Format : UTF-8
Codec ID : S_TEXT/UTF8
Codec ID/Info : UTF-8 Plain Text
Title : forced
Language : Danish
Default : No
Forced : No
Text #6
ID : 9
Format : UTF-8
Codec ID : S_TEXT/UTF8
Codec ID/Info : UTF-8 Plain Text
Title : SDH
Language : Danish
Default : No
Forced : No
Menu
00:00:00.000 : en:Chapter 01
00:09:48.542 : en:Chapter 02
00:20:55.792 : en:Chapter 03
00:30:47.167 : en:Chapter 04
00:41:20.542 : en:Chapter 05
00:53:17.625 : en:Chapter 06
01:02:45.750 : en:Chapter 07
01:12:56.875 : en:Chapter 08
01:23:17.458 : en:Chapter 09
01:33:34.167 : en:Chapter 10
01:42:35.917 : en:Chapter 11

x264

x264 [info]: frame I:1179 Avg QP:14.93 size: 52423
x264 [info]: frame P:31951 Avg QP:15.86 size: 21124
x264 [info]: frame B:127412 Avg QP:18.11 size: 7097
x264 [info]: consecutive B-frames: 1.6% 1.9% 6.0% 15.5% 15.4% 43.1% 6.4% 1.7% 3.1% 0.9% 1.5% 1.7% 1.3%
x264 [info]: mb I I16..4: 8.1% 76.3% 15.6%
x264 [info]: mb P I16..4: 2.3% 13.9% 1.9% P16..4: 38.2% 25.4% 11.5% 0.0% 0.0% skip: 6.7%
x264 [info]: mb B I16..4: 0.3% 1.3% 0.2% B16..8: 38.0% 11.6% 2.4% direct: 5.3% skip:40.9% L0:46.4% L1:44.0% BI: 9.7%
x264 [info]: 8x8 transform intra:76.0% inter:67.5%
x264 [info]: coded y,uvDC,uvAC intra: 74.7% 71.3% 50.7% inter: 17.6% 19.1% 3.0%
x264 [info]: i16 v,h,dc,p: 39% 17% 7% 37%
x264 [info]: i8 v,h,dc,ddl,ddr,vr,hd,vl,hu: 12% 11% 11% 8% 11% 11% 12% 10% 13%
x264 [info]: i4 v,h,dc,ddl,ddr,vr,hd,vl,hu: 14% 10% 7% 8% 14% 13% 13% 9% 12%
x264 [info]: i8c dc,h,v,p: 44% 27% 19% 10%
x264 [info]: Weighted P-Frames: Y:2.5% UV:1.2%
x264 [info]: ref P L0: 45.7% 8.0% 17.2% 7.1% 5.9% 4.3% 3.9% 2.2% 2.1% 1.8% 1.8% 0.1% 0.0%
x264 [info]: ref B L0: 67.5% 12.8% 7.0% 3.7% 2.7% 2.2% 1.8% 1.2% 0.8% 0.3%
x264 [info]: ref B L1: 92.6% 7.4%
x264 [info]: kb/s:1962.55

Скриншоты

с названием


~~ Source ~~

~~ Rip ~~
[Profile]  [PM] 
Display posts:    
Reply to topic

Current time is: 21-Apr 10:34

All times are UTC + 2



You cannot post new topics in this forum
You cannot reply to topics in this forum
You cannot edit your posts in this forum
You cannot delete your posts in this forum
You cannot vote in polls in this forum
You cannot attach files in this forum
You cannot download files in this forum