Сто лет прощения / Украсть у вора / Cien años de perdón (Даниэль Кальпарсоро / Daniel Calparsoro) [2016, Испания, Франция, Аргентина, Боевик, триллер, криминал, драма, HDRip] VO (ХихиДок) + Original Spain

Reply to topic
 
Author
Message

Satyr ®

Gender: Unknown

Longevity: 10 years

Posts: 12852

Reputation: 54 [+] [-]

Satyr · Post 11-Sep-2016 01:21

[Quote] 

Сто лет прощения / Украсть у вора / Cien años de perdón
Страна: Испания, Франция, Аргентина
Жанр: Боевик, триллер, криминал, драма
Год выпуска: 2016
Продолжительность: 01:37:00
Перевод: Одноголосый закадровый ХихиДок
Cубтитры: нет
Режиссер: Даниэль Кальпарсоро / Daniel Calparsoro
В ролях: Луис Тосар, Родриго Де ла Серна, Рауль Аревало, Хосе Коронадо, Патриция Вико, Хоакин Фуррьель, Лусиано Касерес, Мариан Альварес, Луис Кальехо, Микель Фернандес
Описание: План предстоящего ограбления не единожды просчитывался до мельчайших деталей. Банда Уругвайца совершила не мало подобных операций но конкретно это дело отличалось от других своим масштабом, ведь в этот раз они решили очистить финансовое учреждение обладающее огромным валютным резервом в котором как оказались сбережения некоторых влиятельных чиновников и членов правительства, так что у властей присутствовала дополнительная мотивация, чтобы разыскать и наказать преступников. Это дело обретает особый окрас и статус когда оказывается, что украденные деньги имеют непосредственное отношение, к близкому окружению самого президента. Уругвайцу необходимо использовать весь свой аналитический опыт, чтобы спасти себя и своих людей от неминуемой гибели....
Доп. информация: Внимание : -- присутствует (частично) ненормативная лексика
Рейтинг фильма : -- IMDB / 6,4
Сэмпл: http://multi-up.com/1115265
Качество видео: HDRip (Исходник BDRip 1080p mkv)
Формат видео: AVI
Видео: XviD, 720x304, (2,35:1), 24,000 fps, 1752 Кбит/с, 8 бит
Аудио: Русский (АС3, 2 ch (Front: L R), 48,0 KHz, 192 Kbps)
Аудио 2: Испанский (АС3, 2 ch (Front: L R), 48,0 KHz, 192 Kbps)

MediaInfo

Общее
Полное имя : F:\Видеофильмы\В и д е о\Сто лет прощения (боевик кримнал 2016г).avi
Формат : AVI
Формат/Информация : Audio Video Interleave
Размер файла : 1,46 Гбайт
Продолжительность : 1 ч. 36 м.
Общий поток : 2150 Кбит/сек
Программа кодирования : VirtualDubMod 1.5.10.3 | www.virtualdub-fr.org || (build 2550/release)
Библиотека кодирования : VirtualDubMod build 2550/release
Видео
Идентификатор : 0
Формат : MPEG-4 Visual
Профиль формата : Advanced Simple@L5
Параметр BVOP формата : 1
Параметр QPel формата : Нет
Параметр GMC формата : Без точки перехода
Параметр матрицы формата : Выборочная
Идентификатор кодека : XVID
Идентификатор кодека/Подсказка : XviD
Продолжительность : 1 ч. 36 м.
Битрейт : 1752 Кбит/сек
Ширина : 720 пикселей
Высота : 304 пикселя
Соотношение сторон : 2,35:1
Частота кадров : 24,000 кадра/сек
Цветовое пространство : YUV
Субдискретизация насыщенности : 4:2:0
Битовая глубина : 8 бит
Тип развёртки : Прогрессивная
Метод сжатия : С потерями
Бит/(Пиксели*Кадры) : 0.334
Размер потока : 1,19 Гбайт (81%)
Библиотека кодирования : XviD 73
Аудио #1
Идентификатор : 1
Формат : AC-3
Формат/Информация : Audio Coding 3
Расширение режима : CM (complete main)
Параметр Endianness формата : Big
Идентификатор кодека : 2000
Продолжительность : 1 ч. 36 м.
Вид битрейта : Постоянный
Битрейт : 192 Кбит/сек
Каналы : 2 канала
Расположение каналов : Front: L R
Частота : 48,0 КГц
Частота кадров : 31,250 кадров/сек (1536 spf)
Метод сжатия : С потерями
Размер потока : 133 Мбайт (9%)
Выравнивание : Разделение по промежуткам
Продолжительность промежутка : 42 мс. (1,00 видеокадр)
Время предзагрузки промежутка : 500 мс.
Аудио #2
Идентификатор : 2
Формат : AC-3
Формат/Информация : Audio Coding 3
Расширение режима : CM (complete main)
Параметр Endianness формата : Big
Идентификатор кодека : 2000
Продолжительность : 1 ч. 36 м.
Вид битрейта : Постоянный
Битрейт : 192 Кбит/сек
Каналы : 2 канала
Расположение каналов : Front: L R
Частота : 48,0 КГц
Частота кадров : 31,250 кадров/сек (1536 spf)
Метод сжатия : С потерями
Размер потока : 133 Мбайт (9%)
Выравнивание : Разделение по промежуткам
Продолжительность промежутка : 42 мс. (1,00 видеокадр)
Время предзагрузки промежутка : 500 мс.

Скриншот c названием фильма

[Profile]  [PM] 
Display posts:    
Reply to topic

Current time is: 21-Apr 10:42

All times are UTC + 2



You cannot post new topics in this forum
You cannot reply to topics in this forum
You cannot edit your posts in this forum
You cannot delete your posts in this forum
You cannot vote in polls in this forum
You cannot attach files in this forum
You cannot download files in this forum